Статистика раздачи
Размер:  7,09 GB   |    Зарегистрирован:  20 дней   |    Скачан:  0 раз

Полного источника не было: Никогда

 
   
 
 

RealMan ®

Пол:
Не указан
Стаж:
3 месяца 16 дней
Сообщений:
1202

Flamenco, Flamenco. A Film by Carlos Saura
Страна: Spain
Жанр: Flamenco
Продолжительность: 01:40:14
Год выпуска: 2018
Описание: Сара Барас, Пако Де Лючия, Мигель Кармона Хосе в фильме Карлоса Саура "Фламенко, фламенко".
Со времен постановки "Кармен" имя Карлоса Сауры не покидает списков великих режиссеров всех времен и народов. Карлос Саура навсегда занял почетное место в истории кино, соединив живопись, музыку и кинематограф.
"Фламенко, фламенко" - новый фильм мастера, где историю фламенко воссоздают гениальные танцоры Сара Барас и Хосе Мигель Кармона. Безусловным украшением фильма, как и в постановке "Кармен", стало участие Пако де Лусия, одного из самых известных в мире испанских гитаристов - исполнителей фламенко.
Треклист:
01. Rumba
02. Alegría
03. Soleá Por Bulerías
04. Cartagenera Y Bulerías
05. Garrotín
06. Copla Por Bulería
07. Soleá
08. Saeta
09. Marcha Processional
10. Martinete Y Toná
11. Bulería
12. Silencio
13. Guajira
14. Alegría
15. Tangos
16. El Tiempo
17. La Leyenda Del Tiempo
18. Cancióm De Cuna
19. Zapateao
20. Bulería Por Soleá
21. Bulería De Jerez
Доп. информация:
Исходник Blu-ray (Спасибо anbelk27 ).
Сделано по заявке CHKA1961 и ему же большое спасибо за кодирование аудиодорожек для этого релиза.
Меню анимированное, созданное на основе исходного.
Полученный результат проверен на работоспособность на софтовом Media Player Classic Home Cinema, записан на болванку с помощью ImgBurn и вновь проверен уже на бытовом плеере.--

Программы, использованные при создании этого релиза

Демуксинг
eac3to
HdBrStreamExtractor
Обработка видео
DGDecodeNV
AviSynth
Rhozet Carbon Coder
Обработка аудио
BeHappy
Audacity
DTS-HD Master Audio Suite
Создание меню
SnagIt
AviSynth
Rhozet Carbon Coder
Авторинг и проверка
MPEG Video Wizard DVD
Muxman
DVD-lab PRO
DvdReMakePro

Скрипт

LoadPlugin("C:\Portable\DGDecNV2050\DGDecodeNV.dll")
DGSource("M:\AutoringDVD\Flamenco Flamenco\1_2_video.dgi")
LoadPlugin("C:\Program Files (x86)\AviSynth 2.5\plugins\AutoYUY2.dll")
AutoYUY2()
LoadPlugin("C:\Program Files (x86)\AviSynth 2.5\plugins\ColorMatrix.dll")
ColorMatrix(mode="Rec.709->Rec.601", inputFR=false, clamp=0)
BicubicResize(720, 480, 0, 0.5)

Точка перехода

--Разбивка на главы по трекам: есть
Качество : BD=>DVD9
Формат: DVD video
Видео кодек: MPEG2
Аудио кодек: PCM, DTS
Видео: NTSC 16:9 (720x480) VBR Auto Letterboxed, ~6692(6800) Kbps, 23.976 fps
Аудио: Espanol (LinearPCM, 2 ch), 1536 Kbps, 48.0 KHz
Аудио2: Espanol (DTS, 6 ch), 1510 Kbps, 48.0 KHz

DVDinfo+MI

Title: Flamenco, Flamenco. A Film by Carlos Saura
Size: 7.09 Gb ( 7 432 914,00 KBytes ) - DVD-9
Enabled regions: 1, 2, 3, 4, 5, 6, 7, 8
VTS_01 :
Play Length: 01:40:14
Video: NTSC 16:9 (720x480) VBR, Auto Letterboxed
Audio:
Espanol (LinearPCM, 2 ch)
Espanol (DTS, 6 ch)
* Menus Information *
VIDEO_TS Menu
Video:
NTSC 16:9 (720x480) VBR
Auto Letterboxed
Audio:
Not specified (LinearPCM, 2 ch)
English Language Unit :
Title Menu
VTS_01 Menu
Video:
NTSC 16:9 (720x480) VBR
Auto Letterboxed
Audio:
Not specified (Dolby AC3, 2 ch)
English Language Unit :
Root Menu-General
Complete name : N:\Music Video\DVD\Flamenco, Flamenco. A Film by Carlos Saura\VIDEO_TS\VIDEO_TS.BUP
Format : DVD Video
Format profile : Menu
File size : 12.0 KiB
Overall bit rate mode : Variable
FileExtension_Invalid : ifo
Video
ID : 224 (0xE0)
Format : MPEG Video
Format version : Version 2
Bit rate mode : Variable
Width : 720 pixels
Height : 480 pixels
Display aspect ratio : 16:9
Frame rate : 29.970 (29970/1000) FPS
Standard : NTSC
Compression mode : Lossy
Audio
Format : PCM
Channel(s) : 2 channels
Sampling rate : 48.0 kHz
Text
Format : RLE
Format/Info : Run-length encoding
Bit depth : 2 bits
General
Complete name : N:\Music Video\DVD\Flamenco, Flamenco. A Film by Carlos Saura\VIDEO_TS\VIDEO_TS.IFO
Format : DVD Video
Format profile : Menu
File size : 12.0 KiB
Overall bit rate mode : Variable
Video
ID : 224 (0xE0)
Format : MPEG Video
Format version : Version 2
Bit rate mode : Variable
Width : 720 pixels
Height : 480 pixels
Display aspect ratio : 16:9
Frame rate : 29.970 (29970/1000) FPS
Standard : NTSC
Compression mode : Lossy
Audio
Format : PCM
Channel(s) : 2 channels
Sampling rate : 48.0 kHz
Text
Format : RLE
Format/Info : Run-length encoding
Bit depth : 2 bits
General
Complete name : N:\Music Video\DVD\Flamenco, Flamenco. A Film by Carlos Saura\VIDEO_TS\VIDEO_TS.VOB
Format : MPEG-PS
File size : 7.30 MiB
Duration : 8 s 8 ms
Overall bit rate mode : Variable
Overall bit rate : 7 652 kb/s
Video
ID : 224 (0xE0)
Format : MPEG Video
Format version : Version 2
Format profile : Main@Main
Format settings, BVOP : Yes
Format settings, Matrix : Custom
Format settings, GOP : M=3, N=15
Format settings, picture structure : Frame
Duration : 8 s 8 ms
Bit rate mode : Variable
Bit rate : 5 964 kb/s
Maximum bit rate : 8 000 kb/s
Width : 720 pixels
Height : 480 pixels
Display aspect ratio : 16:9
Frame rate : 29.970 (30000/1001) FPS
Standard : NTSC
Color space : YUV
Chroma subsampling : 4:2:0
Bit depth : 8 bits
Scan type : Interlaced
Scan order : Top Field First
Compression mode : Lossy
Bits/(Pixel*Frame) : 0.576
Time code of first frame : 00:00:00:00
Time code source : Group of pictures header
GOP, Open/Closed : Open
GOP, Open/Closed of first frame : Closed
Stream size : 5.69 MiB (78%)
Audio
ID : 189 (0xBD)-160 (0xA0)
Format : PCM
Format settings, Endianness : Big
Format settings, Sign : Signed
Muxing mode : DVD-Video
Duration : 7 s 781 ms
Bit rate mode : Constant
Bit rate : 1 536 kb/s
Channel(s) : 2 channels
Sampling rate : 48.0 kHz
Bit depth : 16 bits
Stream size : 1.42 MiB (20%)
Text #1
ID : 189 (0xBD)-32 (0x20)
Format : RLE
Format/Info : Run-length encoding
Muxing mode : DVD-Video
Text #2
ID : 189 (0xBD)-34 (0x22)
Format : RLE
Format/Info : Run-length encoding
Muxing mode : DVD-Video
Menu
General
Complete name : N:\Music Video\DVD\Flamenco, Flamenco. A Film by Carlos Saura\VIDEO_TS\VTS_01_0.BUP
Format : DVD Video
Format profile : Program
File size : 74.0 KiB
Duration : 1 h 40 min
Overall bit rate mode : Variable
Overall bit rate : 101 b/s
FileExtension_Invalid : ifo
Video
ID : 224 (0xE0)
Format : MPEG Video
Format version : Version 2
Duration : 1 h 40 min
Bit rate mode : Variable
Width : 720 pixels
Height : 480 pixels
Display aspect ratio : 16:9
Frame rate : 29.970 (29970/1000) FPS
Standard : NTSC
Compression mode : Lossy
Audio #1
ID : 0 (0x0)
Format : PCM
Duration : 1 h 40 min
Channel(s) : 2 channels
Sampling rate : 48.0 kHz
Language : Spanish
Audio #2
ID : 137 (0x89)
Format : DTS
Format/Info : Digital Theater Systems
Duration : 1 h 40 min
Channel(s) : 6 channels
Sampling rate : 48.0 kHz
Compression mode : Lossy
Language : Spanish
Menu
Duration : 1 h 40 min
00:00:00.000 : Chapter 1
00:02:51.000 : Chapter 2
00:05:25.000 : Chapter 3
00:10:57.433 : Chapter 4
00:14:45.533 : Chapter 5
00:19:48.633 : Chapter 6
00:24:27.666 : Chapter 7
00:27:52.166 : Chapter 8
00:32:36.566 : Chapter 9
00:34:32.066 : Chapter 10
00:37:36.566 : Chapter 11
00:40:41.999 : Chapter 12
00:42:50.999 : Chapter 13
00:48:18.865 : Chapter 14
00:52:33.531 : Chapter 15
00:57:12.597 : Chapter 16
01:02:25.797 : Chapter 17
01:06:57.797 : Chapter 18
01:10:54.697 : Chapter 19
01:16:07.730 : Chapter 20
01:22:35.530 : Chapter 21
01:29:52.163 : Chapter 22
List (Audio) : 0 / 1
General
Complete name : N:\Music Video\DVD\Flamenco, Flamenco. A Film by Carlos Saura\VIDEO_TS\VTS_01_0.IFO
Format : DVD Video
Format profile : Program
File size : 74.0 KiB
Duration : 1 h 40 min
Overall bit rate mode : Variable
Overall bit rate : 101 b/s
Video
ID : 224 (0xE0)
Format : MPEG Video
Format version : Version 2
Duration : 1 h 40 min
Bit rate mode : Variable
Width : 720 pixels
Height : 480 pixels
Display aspect ratio : 16:9
Frame rate : 29.970 (29970/1000) FPS
Standard : NTSC
Compression mode : Lossy
Audio #1
ID : 0 (0x0)
Format : PCM
Duration : 1 h 40 min
Channel(s) : 2 channels
Sampling rate : 48.0 kHz
Language : Spanish
Audio #2
ID : 137 (0x89)
Format : DTS
Format/Info : Digital Theater Systems
Duration : 1 h 40 min
Channel(s) : 6 channels
Sampling rate : 48.0 kHz
Compression mode : Lossy
Language : Spanish
Menu
Duration : 1 h 40 min
00:00:00.000 : Chapter 1
00:02:51.000 : Chapter 2
00:05:25.000 : Chapter 3
00:10:57.433 : Chapter 4
00:14:45.533 : Chapter 5
00:19:48.633 : Chapter 6
00:24:27.666 : Chapter 7
00:27:52.166 : Chapter 8
00:32:36.566 : Chapter 9
00:34:32.066 : Chapter 10
00:37:36.566 : Chapter 11
00:40:41.999 : Chapter 12
00:42:50.999 : Chapter 13
00:48:18.865 : Chapter 14
00:52:33.531 : Chapter 15
00:57:12.597 : Chapter 16
01:02:25.797 : Chapter 17
01:06:57.797 : Chapter 18
01:10:54.697 : Chapter 19
01:16:07.730 : Chapter 20
01:22:35.530 : Chapter 21
01:29:52.163 : Chapter 22
List (Audio) : 0 / 1
General
Complete name : N:\Music Video\DVD\Flamenco, Flamenco. A Film by Carlos Saura\VIDEO_TS\VTS_01_0.VOB
Format : MPEG-PS
File size : 132 MiB
Duration : 1 min 0 s
Overall bit rate mode : Variable
Overall bit rate : 18.4 Mb/s
Video
ID : 224 (0xE0)
Format : MPEG Video
Format version : Version 2
Format profile : Main@Main
Format settings, BVOP : Yes
Format settings, Matrix : Default
Format settings, GOP : M=3, N=15
Duration : 1 min 0 s
Bit rate mode : Variable
Bit rate : 17.8 Mb/s
Maximum bit rate : 8 500 kb/s
Width : 720 pixels
Height : 480 pixels
Display aspect ratio : 16:9
Frame rate : 29.970 (30000/1001) FPS
Standard : NTSC
Color space : YUV
Chroma subsampling : 4:2:0
Bit depth : 8 bits
Scan type : Progressive
Compression mode : Lossy
Bits/(Pixel*Frame) : 1.723
Time code of first frame : 00:00:00:00
Time code source : Group of pictures header
GOP, Open/Closed : Closed
Stream size : 128 MiB (97%)
Color primaries : BT.470 System M
Transfer characteristics : BT.470 System M
Matrix coefficients : BT.470 System B, BT.470 System G
Audio
ID : 189 (0xBD)-128 (0x80)
Format : AC-3
Format/Info : Audio Coding 3
Format settings, Endianness : Big
Muxing mode : DVD-Video
Duration : 1 min 0 s
Bit rate mode : Constant
Bit rate : 192 kb/s
Channel(s) : 2 channels
Channel positions : Front: L R
Sampling rate : 48.0 kHz
Frame rate : 31.250 FPS (1536 SPF)
Bit depth : 16 bits
Compression mode : Lossy
Stream size : 1.37 MiB (1%)
Service kind : Complete Main
Text #1
ID : 189 (0xBD)-32 (0x20)
Format : RLE
Format/Info : Run-length encoding
Muxing mode : DVD-Video
Text #2
ID : 189 (0xBD)-34 (0x22)
Format : RLE
Format/Info : Run-length encoding
Muxing mode : DVD-Video
Menu
General
Complete name : N:\Music Video\DVD\Flamenco, Flamenco. A Film by Carlos Saura\VIDEO_TS\VTS_01_1.VOB
Format : MPEG-PS
File size : 1 024 MiB
Duration : 14 min 29 s
Overall bit rate mode : Variable
Overall bit rate : 9 879 kb/s
Video
ID : 224 (0xE0)
Format : MPEG Video
Format version : Version 2
Format profile : Main@Main
Format settings, BVOP : Yes
Format settings, Matrix : Custom
Format settings, GOP : Variable
Duration : 14 min 29 s
Bit rate mode : Variable
Bit rate : 6 637 kb/s
Maximum bit rate : 6 800 kb/s
Width : 720 pixels
Height : 480 pixels
Display aspect ratio : 16:9
Frame rate : 23.976 (24000/1001) FPS
Color space : YUV
Chroma subsampling : 4:2:0
Bit depth : 8 bits
Scan type : Progressive
Scan order : 2:3 Pulldown
Compression mode : Lossy
Bits/(Pixel*Frame) : 0.801
Time code of first frame : 00:00:00:00
Time code source : Group of pictures header
GOP, Open/Closed : Open
GOP, Open/Closed of first frame : Closed
Stream size : 688 MiB (67%)
Audio #1
ID : 189 (0xBD)-137 (0x89)
Format : DTS
Format/Info : Digital Theater Systems
Mode : 16
Format settings, Endianness : Big
Muxing mode : DVD-Video
Duration : 14 min 29 s
Bit rate mode : Constant
Bit rate : 1 510 kb/s
Channel(s) : 6 channels
Channel positions : Front: L C R, Side: L R, LFE
Sampling rate : 48.0 kHz
Frame rate : 93.750 FPS (512 SPF)
Bit depth : 16 bits
Compression mode : Lossy
Stream size : 156 MiB (15%)
Audio #2
ID : 189 (0xBD)-160 (0xA0)
Format : PCM
Format settings, Endianness : Big
Format settings, Sign : Signed
Muxing mode : DVD-Video
Duration : 14 min 29 s
Bit rate mode : Constant
Bit rate : 1 536 kb/s
Channel(s) : 2 channels
Sampling rate : 48.0 kHz
Bit depth : 16 bits
Stream size : 159 MiB (16%)
Menu
General
Complete name : N:\Music Video\DVD\Flamenco, Flamenco. A Film by Carlos Saura\VIDEO_TS\VTS_01_2.VOB
Format : MPEG-PS
File size : 1 024 MiB
Duration : 14 min 27 s
Overall bit rate mode : Variable
Overall bit rate : 9 902 kb/s
Video
ID : 224 (0xE0)
Format : MPEG Video
Format version : Version 2
Format profile : Main@Main
Format settings, BVOP : Yes
Format settings, Matrix : Custom
Format settings, GOP : M=3, N=12
Duration : 14 min 27 s
Bit rate mode : Variable
Bit rate : 6 659 kb/s
Maximum bit rate : 6 800 kb/s
Width : 720 pixels
Height : 480 pixels
Display aspect ratio : 16:9
Frame rate : 23.976 (24000/1001) FPS
Color space : YUV
Chroma subsampling : 4:2:0
Bit depth : 8 bits
Scan type : Progressive
Scan order : 2:3 Pulldown
Compression mode : Lossy
Bits/(Pixel*Frame) : 0.804
Time code of first frame : 00:14:29:00
Time code source : Group of pictures header
GOP, Open/Closed : Open
Stream size : 688 MiB (67%)
Audio #1
ID : 189 (0xBD)-137 (0x89)
Format : DTS
Format/Info : Digital Theater Systems
Mode : 16
Format settings, Endianness : Big
Muxing mode : DVD-Video
Duration : 14 min 27 s
Bit rate mode : Constant
Bit rate : 1 510 kb/s
Channel(s) : 6 channels
Channel positions : Front: L C R, Side: L R, LFE
Sampling rate : 48.0 kHz
Frame rate : 93.750 FPS (512 SPF)
Bit depth : 16 bits
Compression mode : Lossy
Delay relative to video : -662 ms
Stream size : 156 MiB (15%)
Audio #2
ID : 189 (0xBD)-160 (0xA0)
Format : PCM
Format settings, Endianness : Big
Format settings, Sign : Signed
Muxing mode : DVD-Video
Duration : 14 min 27 s
Bit rate mode : Constant
Bit rate : 1 536 kb/s
Channel(s) : 2 channels
Sampling rate : 48.0 kHz
Bit depth : 16 bits
Delay relative to video : -656 ms
Stream size : 159 MiB (16%)
Menu
General
Complete name : N:\Music Video\DVD\Flamenco, Flamenco. A Film by Carlos Saura\VIDEO_TS\VTS_01_3.VOB
Format : MPEG-PS
File size : 1 024 MiB
Duration : 14 min 30 s
Overall bit rate mode : Variable
Overall bit rate : 9 864 kb/s
Video
ID : 224 (0xE0)
Format : MPEG Video
Format version : Version 2
Format profile : Main@Main
Format settings, BVOP : Yes
Format settings, Matrix : Custom
Format settings, GOP : M=3, N=12
Duration : 14 min 30 s
Bit rate mode : Variable
Bit rate : 6 622 kb/s
Maximum bit rate : 6 800 kb/s
Width : 720 pixels
Height : 480 pixels
Display aspect ratio : 16:9
Frame rate : 23.976 (24000/1001) FPS
Color space : YUV
Chroma subsampling : 4:2:0
Bit depth : 8 bits
Scan type : Progressive
Scan order : 2:3 Pulldown
Compression mode : Lossy
Bits/(Pixel*Frame) : 0.799
Time code of first frame : 00:28:55:19
Time code source : Group of pictures header
GOP, Open/Closed : Open
Stream size : 687 MiB (67%)
Audio #1
ID : 189 (0xBD)-137 (0x89)
Format : DTS
Format/Info : Digital Theater Systems
Mode : 16
Format settings, Endianness : Big
Muxing mode : DVD-Video
Duration : 14 min 30 s
Bit rate mode : Constant
Bit rate : 1 510 kb/s
Channel(s) : 6 channels
Channel positions : Front: L C R, Side: L R, LFE
Sampling rate : 48.0 kHz
Frame rate : 93.750 FPS (512 SPF)
Bit depth : 16 bits
Compression mode : Lossy
Delay relative to video : -667 ms
Stream size : 157 MiB (15%)
Audio #2
ID : 189 (0xBD)-160 (0xA0)
Format : PCM
Format settings, Endianness : Big
Format settings, Sign : Signed
Muxing mode : DVD-Video
Duration : 14 min 30 s
Bit rate mode : Constant
Bit rate : 1 536 kb/s
Channel(s) : 2 channels
Sampling rate : 48.0 kHz
Bit depth : 16 bits
Delay relative to video : -672 ms
Stream size : 159 MiB (16%)
Menu
General
Complete name : N:\Music Video\DVD\Flamenco, Flamenco. A Film by Carlos Saura\VIDEO_TS\VTS_01_4.VOB
Format : MPEG-PS
File size : 1 024 MiB
Duration : 14 min 24 s
Overall bit rate mode : Variable
Overall bit rate : 9 939 kb/s
Video
ID : 224 (0xE0)
Format : MPEG Video
Format version : Version 2
Format profile : Main@Main
Format settings, BVOP : Yes
Format settings, Matrix : Custom
Format settings, GOP : M=3, N=12
Duration : 14 min 24 s
Bit rate mode : Variable
Bit rate : 6 695 kb/s
Maximum bit rate : 6 800 kb/s
Width : 720 pixels
Height : 480 pixels
Display aspect ratio : 16:9
Frame rate : 23.976 (24000/1001) FPS
Color space : YUV
Chroma subsampling : 4:2:0
Bit depth : 8 bits
Scan type : Progressive
Scan order : 2:3 Pulldown
Compression mode : Lossy
Bits/(Pixel*Frame) : 0.808
Time code of first frame : 00:43:25:13
Time code source : Group of pictures header
GOP, Open/Closed : Open
Stream size : 690 MiB (67%)
Audio #1
ID : 189 (0xBD)-137 (0x89)
Format : DTS
Format/Info : Digital Theater Systems
Mode : 16
Format settings, Endianness : Big
Muxing mode : DVD-Video
Duration : 14 min 24 s
Bit rate mode : Constant
Bit rate : 1 510 kb/s
Channel(s) : 6 channels
Channel positions : Front: L C R, Side: L R, LFE
Sampling rate : 48.0 kHz
Frame rate : 93.750 FPS (512 SPF)
Bit depth : 16 bits
Compression mode : Lossy
Delay relative to video : -490 ms
Stream size : 156 MiB (15%)
Audio #2
ID : 189 (0xBD)-160 (0xA0)
Format : PCM
Format settings, Endianness : Big
Format settings, Sign : Signed
Muxing mode : DVD-Video
Duration : 14 min 24 s
Bit rate mode : Constant
Bit rate : 1 536 kb/s
Channel(s) : 2 channels
Sampling rate : 48.0 kHz
Bit depth : 16 bits
Delay relative to video : -487 ms
Stream size : 158 MiB (15%)
Menu
General
Complete name : N:\Music Video\DVD\Flamenco, Flamenco. A Film by Carlos Saura\VIDEO_TS\VTS_01_5.VOB
Format : MPEG-PS
File size : 1 024 MiB
Duration : 14 min 23 s
Overall bit rate mode : Variable
Overall bit rate : 9 947 kb/s
Video
ID : 224 (0xE0)
Format : MPEG Video
Format version : Version 2
Format profile : Main@Main
Format settings, BVOP : Yes
Format settings, Matrix : Custom
Format settings, GOP : M=3, N=12
Duration : 14 min 23 s
Bit rate mode : Variable
Bit rate : 6 703 kb/s
Maximum bit rate : 6 800 kb/s
Width : 720 pixels
Height : 480 pixels
Display aspect ratio : 16:9
Frame rate : 23.976 (24000/1001) FPS
Color space : YUV
Chroma subsampling : 4:2:0
Bit depth : 8 bits
Scan type : Progressive
Scan order : 2:3 Pulldown
Compression mode : Lossy
Bits/(Pixel*Frame) : 0.809
Time code of first frame : 00:57:49:00
Time code source : Group of pictures header
GOP, Open/Closed : Open
Stream size : 690 MiB (67%)
Audio #1
ID : 189 (0xBD)-137 (0x89)
Format : DTS
Format/Info : Digital Theater Systems
Mode : 16
Format settings, Endianness : Big
Muxing mode : DVD-Video
Duration : 14 min 23 s
Bit rate mode : Constant
Bit rate : 1 510 kb/s
Channel(s) : 6 channels
Channel positions : Front: L C R, Side: L R, LFE
Sampling rate : 48.0 kHz
Frame rate : 93.750 FPS (512 SPF)
Bit depth : 16 bits
Compression mode : Lossy
Delay relative to video : -638 ms
Stream size : 155 MiB (15%)
Audio #2
ID : 189 (0xBD)-160 (0xA0)
Format : PCM
Format settings, Endianness : Big
Format settings, Sign : Signed
Muxing mode : DVD-Video
Duration : 14 min 23 s
Bit rate mode : Constant
Bit rate : 1 536 kb/s
Channel(s) : 2 channels
Sampling rate : 48.0 kHz
Bit depth : 16 bits
Delay relative to video : -636 ms
Stream size : 158 MiB (15%)
Menu
General
Complete name : N:\Music Video\DVD\Flamenco, Flamenco. A Film by Carlos Saura\VIDEO_TS\VTS_01_6.VOB
Format : MPEG-PS
File size : 1 024 MiB
Duration : 14 min 22 s
Overall bit rate mode : Variable
Overall bit rate : 9 962 kb/s
Video
ID : 224 (0xE0)
Format : MPEG Video
Format version : Version 2
Format profile : Main@Main
Format settings, BVOP : Yes
Format settings, Matrix : Custom
Format settings, GOP : Variable
Duration : 14 min 22 s
Bit rate mode : Variable
Bit rate : 6 718 kb/s
Maximum bit rate : 6 800 kb/s
Width : 720 pixels
Height : 480 pixels
Display aspect ratio : 16:9
Frame rate : 23.976 (24000/1001) FPS
Color space : YUV
Chroma subsampling : 4:2:0
Bit depth : 8 bits
Scan type : Progressive
Scan order : 2:3 Pulldown
Compression mode : Lossy
Bits/(Pixel*Frame) : 0.811
Time code of first frame : 01:12:11:16
Time code source : Group of pictures header
Stream size : 690 MiB (67%)
Audio #1
ID : 189 (0xBD)-137 (0x89)
Format : DTS
Format/Info : Digital Theater Systems
Mode : 16
Format settings, Endianness : Big
Muxing mode : DVD-Video
Duration : 14 min 22 s
Bit rate mode : Constant
Bit rate : 1 510 kb/s
Channel(s) : 6 channels
Channel positions : Front: L C R, Side: L R, LFE
Sampling rate : 48.0 kHz
Frame rate : 93.750 FPS (512 SPF)
Bit depth : 16 bits
Compression mode : Lossy
Delay relative to video : -429 ms
Stream size : 155 MiB (15%)
Audio #2
ID : 189 (0xBD)-160 (0xA0)
Format : PCM
Format settings, Endianness : Big
Format settings, Sign : Signed
Muxing mode : DVD-Video
Duration : 14 min 22 s
Bit rate mode : Constant
Bit rate : 1 536 kb/s
Channel(s) : 2 channels
Sampling rate : 48.0 kHz
Bit depth : 16 bits
Delay relative to video : -435 ms
Stream size : 158 MiB (15%)
Menu
General
Complete name : N:\Music Video\DVD\Flamenco, Flamenco. A Film by Carlos Saura\VIDEO_TS\VTS_01_7.VOB
Format : MPEG-PS
File size : 975 MiB
Duration : 13 min 42 s
Overall bit rate mode : Variable
Overall bit rate : 9 947 kb/s
Video
ID : 224 (0xE0)
Format : MPEG Video
Format version : Version 2
Format profile : Main@Main
Format settings, BVOP : Yes
Format settings, Matrix : Custom
Format settings, GOP : M=3, N=12
Duration : 13 min 41 s
Bit rate mode : Variable
Bit rate : 6 704 kb/s
Maximum bit rate : 6 800 kb/s
Width : 720 pixels
Height : 480 pixels
Display aspect ratio : 16:9
Frame rate : 23.976 (24000/1001) FPS
Color space : YUV
Chroma subsampling : 4:2:0
Bit depth : 8 bits
Scan type : Progressive
Scan order : 2:3 Pulldown
Compression mode : Lossy
Bits/(Pixel*Frame) : 0.809
Time code of first frame : 01:26:33:04
Time code source : Group of pictures header
GOP, Open/Closed : Open
Stream size : 657 MiB (67%)
Audio #1
ID : 189 (0xBD)-137 (0x89)
Format : DTS
Format/Info : Digital Theater Systems
Mode : 16
Format settings, Endianness : Big
Muxing mode : DVD-Video
Duration : 13 min 42 s
Bit rate mode : Constant
Bit rate : 1 510 kb/s
Channel(s) : 6 channels
Channel positions : Front: L C R, Side: L R, LFE
Sampling rate : 48.0 kHz
Frame rate : 93.750 FPS (512 SPF)
Bit depth : 16 bits
Compression mode : Lossy
Delay relative to video : -602 ms
Stream size : 148 MiB (15%)
Audio #2
ID : 189 (0xBD)-160 (0xA0)
Format : PCM
Format settings, Endianness : Big
Format settings, Sign : Signed
Muxing mode : DVD-Video
Duration : 13 min 42 s
Bit rate mode : Constant
Bit rate : 1 536 kb/s
Channel(s) : 2 channels
Sampling rate : 48.0 kHz
Bit depth : 16 bits
Delay relative to video : -602 ms
Stream size : 151 MiB (15%)

Скриншоты меню

Скриншоты

Релиз:
[torrents24.ru].t36353.torrent 
Торрент: Зарегистрирован [ 2018-05-01 02:00 ] · 2F15B09088F22BED73FFF3D93583882D4C322C25

Скачать .torrent

Скачать

37 KB

Статус: проверено
Скачан: 0 раз
Размер: 7,09 GB
Профиль [ЛС]
Показать сообщения:    

Текущее время: 21-Май 05:50

Часовой пояс: UTC + 3



Вы не можете начинать темы
Вы не можете отвечать на сообщения
Вы не можете редактировать свои сообщения
Вы не можете удалять свои сообщения
Вы не можете голосовать в опросах
Вы не можете прикреплять файлы к сообщениям
Вы можете скачивать файлы