Статистика раздачи
Размер:  22,47 GB   |    Зарегистрирован:  5 месяцев 21 день   |    Скачан:  0 раз

Полного источника не было: Никогда

 
   
 
 

Букашка ®

Пол:
Женский
Стаж:
8 месяцев 19 дней
Сообщений:
296

-Покемон Алмаз и Жемчуг: Победители Лиги Синно (Сезон 13)
Pokemon DP: Sinnoh League Victors
- Страна: Япония / США
Год выпуска: 2010
Жанр: детский, комедия, приключения, фэнтези.
Тип: TV
Продолжительность: 34 серии по 21 минуте
Режиссер: Кунихико Юяма
Студия: OLM
-Описание:
Эш, Дон и Брок продолжают своё путешествие по области Сино, попадают в неприятности, участвуют в сражениях и справляются с выходками Команды Ракета. Разобравшись с Командой Галактика, Эш сосредотачивается на отборочном туре лиги Синно. А Дон будет стремится, завоевать свою последнюю ленту, которая позволит ей принять участие в большом фестивале.(с)TeamGliger
-Информация о релизе:
Сведение звука: LightEssence-Качество: WEBRip | Тип релиза: Без хардсаба | Формат видео: MKV
Релиз/Автор рипа:

Совместимость с бытовыми плеерами: Нет-Обновление от 18.03.2018 [Обновление шапки]
Видео: x264, 8bit, 1920х1080, 4394 kbps, 29.970 fps (NTSC)
в составе контейнера:
Аудио 1: AC3, 192kbps, 48kHz, 2ch - Русский; Озвучка 1: [DUB] - Многоголосый, Дублированный [SDI Media Russia]
Аудио 2: AC3, 224kbps, 48kHz, 2ch - Английский; Озвучка 2: [DUB] - Многоголосый, Дублированный [Оригинал]-

Скриншоты

Подробные тех. данные

Код:General
Unique ID : 25012706639068154378455087026756843950 (0x12D145A66BD193FAA5BA8DBCCDA2F9AE)
Complete name : E:\S13\Pokemon Season 13 - Sinnoh League Victors\Pokemon Season 13 - DP158 - Sinnoh League Victors [AMZN-1080p-DUB].mkv
Format : Matroska
Format version : Version 4 / Version 2
File size : 733 MiB
Duration : 21 min 17 s
Overall bit rate mode : Variable
Overall bit rate : 4 811 kb/s
Encoded date : UTC 2018-01-27 16:30:27
Writing application : mkvmerge v19.0.0 ('Brave Captain') 64-bit
Writing library : libebml v1.3.5 + libmatroska v1.4.8
Video
ID : 1
Format : AVC
Format/Info : Advanced Video Codec
Format profile : High@L4
Format settings, CABAC : Yes
Format settings, RefFrames : 4 frames
Codec ID : V_MPEG4/ISO/AVC
Duration : 21 min 17 s
Bit rate mode : Variable
Bit rate : 4 394 kb/s
Maximum bit rate : 15.0 Mb/s
Width : 1 920 pixels
Height : 1 080 pixels
Display aspect ratio : 16:9
Frame rate mode : Constant
Frame rate : 29.970 (30000/1001) FPS
Color space : YUV
Chroma subsampling : 4:2:0
Bit depth : 8 bits
Scan type : Progressive
Bits/(Pixel*Frame) : 0.071
Stream size : 669 MiB (91%)
Language : English
Default : Yes
Forced : No
Color range : Limited
Color primaries : BT.709
Transfer characteristics : BT.709
Matrix coefficients : BT.709
Audio #1
ID : 2
Format : AC-3
Format/Info : Audio Coding 3
Format settings, Endianness : Big
Codec ID : A_AC3
Duration : 21 min 17 s
Bit rate mode : Constant
Bit rate : 192 kb/s
Channel(s) : 2 channels
Channel positions : Front: L R
Sampling rate : 48.0 kHz
Frame rate : 31.250 FPS (1536 SPF)
Bit depth : 16 bits
Compression mode : Lossy
Stream size : 29.2 MiB (4%)
Language : Russian
Service kind : Complete Main
Default : Yes
Forced : No
Audio #2
ID : 3
Format : AC-3
Format/Info : Audio Coding 3
Format settings, Endianness : Big
Codec ID : A_AC3
Duration : 21 min 17 s
Bit rate mode : Constant
Bit rate : 224 kb/s
Channel(s) : 2 channels
Channel positions : Front: L R
Sampling rate : 48.0 kHz
Frame rate : 31.250 FPS (1536 SPF)
Bit depth : 16 bits
Compression mode : Lossy
Stream size : 34.1 MiB (5%)
Language : English
Service kind : Complete Main
Default : No
Forced : No

Отличия

[TVRip] [Shaman-aka-King] - 1080p
[HDTVRip HWP] [Andron1818] - 1080p
[DVDRip] [Slink] - 1080p
[HDTVRip 720p] [NIIBACO] - 1080p
[HDTVRip 720p] [Andron1818] - 1080p

Постер в оригинальном размере

-Внимание!!!
Если торрент не видит анонсеры рутрекера и не видит сидов (раздача выделена красным цветом в uTorrent) рекомендую воспользоваться этой или другими инструкциями по обходу блокировки
[torrents24.ru].t34956.torrent 
Торрент: Зарегистрирован [ 2018-04-30 06:40 ] · 3FC0BD64470B9469B40F04813FD692416A685054

Скачать .torrent

Скачать

60 KB

Статус: проверено
Скачан: 0 раз
Размер: 22,47 GB

Профиль [ЛС]
Показать сообщения:    

Текущее время: 21-Окт 22:26

Часовой пояс: UTC + 3



Вы не можете начинать темы
Вы не можете отвечать на сообщения
Вы не можете редактировать свои сообщения
Вы не можете удалять свои сообщения
Вы не можете голосовать в опросах
Вы не можете прикреплять файлы к сообщениям
Вы можете скачивать файлы