(Rock / Pop / Modern Classical) [CD] Rick Springfield - Orchestrating My Life - 2019, FLAC (tracks+.cue), lossless

Ответить на тему
Статистика раздачи
Размер:  617 MB   |    Зарегистрирован:  1 месяц 4 дня   |    Скачан:  1 раз

Полного источника не было: 1 месяц 3 дня

 
   
 
 
Автор Сообщение

folk ®

Пол: Не указан

Стаж: 1 год 3 месяца

Сообщений: 136

Создавать темы 21-Май-2019 15:59

[Цитировать]

Rick Springfield / Orchestrating My Life
Жанр: Rock / Pop / Modern Classical
Носитель: CD
Страна-производитель диска (релиза): US
Год издания: 2019
Издатель (лейбл): August Day Recordings
Номер по каталогу: 5055373546698
Страна исполнителя (группы): Australia, USA
Аудиокодек: FLAC (*.flac)
Тип рипа: tracks+.cue
Продолжительность: 00:49:01
Источник: собственный рип
Наличие сканов в содержимом раздачи: да
Треклист:
01. Kristina (4:56)
02. I've Done Everything For You (3:18)
03. Don't Talk To Strangers (2:59)
04. Jessie's Girl (3:17)
05. Affair Of The Heart (3:56)
06. Love Somebody (3:36)
07. Human Touch (4:13)
08. Celebrate Youth (3:58)
09. World Start Turning (5:36)
10. State Of The Heart (4:50)
11. Irreplaceable (3:46)
12. April 24th, 1981 / My Father's Chair (4:32)

Лог создания рипа

Exact Audio Copy V1.0 beta 3 from 29. August 2011
EAC extraction logfile from 20. May 2019, 23:00
Rick Springfield / Orchestrating My Life
Used drive : ASUS BW-16D1HT Adapter: 2 ID: 0
Read mode : Secure
Utilize accurate stream : Yes
Defeat audio cache : Yes
Make use of C2 pointers : No
Read offset correction : 6
Overread into Lead-In and Lead-Out : No
Fill up missing offset samples with silence : Yes
Delete leading and trailing silent blocks : No
Null samples used in CRC calculations : Yes
Used interface : Native Win32 interface for Win NT & 2000
Gap handling : Appended to previous track
Used output format : User Defined Encoder
Selected bitrate : 128 kBit/s
Quality : High
Add ID3 tag : No
Command line compressor : C:\Program Files (x86)\Exact Audio Copy\Flac\flac.exe
Additional command line options : -V -8 -T "Genre=%genre%" -T "Artist=%artist%" -T "Title=%title%" -T "Album=%albumtitle%" -T "Date=%year%" -T "Tracknumber=%tracknr%" -T "Comment=%comment%" %source%
TOC of the extracted CD
Track | Start | Length | Start sector | End sector
---------------------------------------------------------
1 | 0:00.00 | 4:56.01 | 0 | 22200
2 | 4:56.01 | 3:18.45 | 22201 | 37095
3 | 8:14.46 | 2:59.25 | 37096 | 50545
4 | 11:13.71 | 3:17.01 | 50546 | 65321
5 | 14:30.72 | 3:56.16 | 65322 | 83037
6 | 18:27.13 | 3:36.67 | 83038 | 99304
7 | 22:04.05 | 4:13.13 | 99305 | 118292
8 | 26:17.18 | 3:58.02 | 118293 | 136144
9 | 30:15.20 | 5:36.48 | 136145 | 161392
10 | 35:51.68 | 4:50.48 | 161393 | 183190
11 | 40:42.41 | 3:46.10 | 183191 | 200150
12 | 44:28.51 | 4:32.16 | 200151 | 220566
Track 1
Filename D:\Rick Springfield - Orchestrating My Life (August Day, 5055373546698, CD) (2019)\01 - Kristina.wav
Pre-gap length 0:00:02.00
Peak level 100.0 %
Extraction speed 5.1 X
Track quality 100.0 %
Test CRC F197B9C5
Copy CRC F197B9C5
Track not present in AccurateRip database
Copy OK
Track 2
Filename D:\Rick Springfield - Orchestrating My Life (August Day, 5055373546698, CD) (2019)\02 - I've Done Everything For You.wav
Pre-gap length 0:00:02.00
Peak level 100.0 %
Extraction speed 5.4 X
Track quality 100.0 %
Test CRC FDB4A539
Copy CRC FDB4A539
Track not present in AccurateRip database
Copy OK
Track 3
Filename D:\Rick Springfield - Orchestrating My Life (August Day, 5055373546698, CD) (2019)\03 - Don't Talk To Strangers.wav
Pre-gap length 0:00:02.00
Peak level 100.0 %
Extraction speed 5.6 X
Track quality 100.0 %
Test CRC 1F78A103
Copy CRC 1F78A103
Track not present in AccurateRip database
Copy OK
Track 4
Filename D:\Rick Springfield - Orchestrating My Life (August Day, 5055373546698, CD) (2019)\04 - Jessie's Girl.wav
Pre-gap length 0:00:02.00
Peak level 100.0 %
Extraction speed 6.0 X
Track quality 100.0 %
Test CRC A7B4DD04
Copy CRC A7B4DD04
Track not present in AccurateRip database
Copy OK
Track 5
Filename D:\Rick Springfield - Orchestrating My Life (August Day, 5055373546698, CD) (2019)\05 - Affair Of The Heart.wav
Pre-gap length 0:00:02.00
Peak level 100.0 %
Extraction speed 6.5 X
Track quality 100.0 %
Test CRC 22C40713
Copy CRC 22C40713
Track not present in AccurateRip database
Copy OK
Track 6
Filename D:\Rick Springfield - Orchestrating My Life (August Day, 5055373546698, CD) (2019)\06 - Love Somebody.wav
Pre-gap length 0:00:02.00
Peak level 100.0 %
Extraction speed 6.7 X
Track quality 100.0 %
Test CRC 703F8256
Copy CRC 703F8256
Track not present in AccurateRip database
Copy OK
Track 7
Filename D:\Rick Springfield - Orchestrating My Life (August Day, 5055373546698, CD) (2019)\07 - Human Touch.wav
Pre-gap length 0:00:02.00
Peak level 100.0 %
Extraction speed 7.1 X
Track quality 100.0 %
Test CRC 9B76795A
Copy CRC 9B76795A
Track not present in AccurateRip database
Copy OK
Track 8
Filename D:\Rick Springfield - Orchestrating My Life (August Day, 5055373546698, CD) (2019)\08 - Celebrate Youth.wav
Pre-gap length 0:00:02.00
Peak level 100.0 %
Extraction speed 6.7 X
Track quality 99.9 %
Test CRC AD136B00
Copy CRC AD136B00
Track not present in AccurateRip database
Copy OK
Track 9
Filename D:\Rick Springfield - Orchestrating My Life (August Day, 5055373546698, CD) (2019)\09 - World Start Turning.wav
Pre-gap length 0:00:02.00
Peak level 100.0 %
Extraction speed 7.4 X
Track quality 99.9 %
Test CRC F480FAE4
Copy CRC F480FAE4
Track not present in AccurateRip database
Copy OK
Track 10
Filename D:\Rick Springfield - Orchestrating My Life (August Day, 5055373546698, CD) (2019)\10 - State Of The Heart.wav
Pre-gap length 0:00:02.00
Peak level 100.0 %
Extraction speed 8.4 X
Track quality 100.0 %
Test CRC B8328017
Copy CRC B8328017
Track not present in AccurateRip database
Copy OK
Track 11
Filename D:\Rick Springfield - Orchestrating My Life (August Day, 5055373546698, CD) (2019)\11 - Irreplaceable.wav
Pre-gap length 0:00:02.00
Peak level 100.0 %
Extraction speed 8.3 X
Track quality 100.0 %
Test CRC AA16CC2F
Copy CRC AA16CC2F
Track not present in AccurateRip database
Copy OK
Track 12
Filename D:\Rick Springfield - Orchestrating My Life (August Day, 5055373546698, CD) (2019)\12 - April 24th, 1981 , My Father's Chair.wav
Pre-gap length 0:00:02.00
Peak level 100.0 %
Extraction speed 8.9 X
Track quality 100.0 %
Test CRC AD62DF73
Copy CRC AD62DF73
Track not present in AccurateRip database
Copy OK
None of the tracks are present in the AccurateRip database
No errors occurred
End of status report
==== Log checksum 1CDE04F23B5941EAE249FA4DE7E05385474078942075EB2FDBE2E88BE9037E70 ====

Содержание индексной карты (.CUE)

REM GENRE Rock
REM DATE 2019
REM DISCID B10B7C0C
REM COMMENT "ExactAudioCopy v1.0b3"
CATALOG 5055373546698
PERFORMER "Rick Springfield"
TITLE "Orchestrating My Life"
FILE "01 - Kristina.wav" WAVE
TRACK 01 AUDIO
TITLE "Kristina"
PERFORMER "Rick Springfield"
ISRC GBHCD1721627
INDEX 01 00:00:00
TRACK 02 AUDIO
TITLE "I've Done Everything For You"
PERFORMER "Rick Springfield"
ISRC GBHCD1721628
INDEX 00 04:54:01
FILE "02 - I've Done Everything For You.wav" WAVE
INDEX 01 00:00:00
TRACK 03 AUDIO
TITLE "Don't Talk To Strangers"
PERFORMER "Rick Springfield"
ISRC GBHCD1721629
INDEX 00 03:16:45
FILE "03 - Don't Talk To Strangers.wav" WAVE
INDEX 01 00:00:00
TRACK 04 AUDIO
TITLE "Jessie's Girl"
PERFORMER "Rick Springfield"
ISRC GBHCD1721630
INDEX 00 02:57:25
FILE "04 - Jessie's Girl.wav" WAVE
INDEX 01 00:00:00
TRACK 05 AUDIO
TITLE "Affair Of The Heart"
PERFORMER "Rick Springfield"
ISRC GBHCD1721631
INDEX 00 03:15:01
FILE "05 - Affair Of The Heart.wav" WAVE
INDEX 01 00:00:00
TRACK 06 AUDIO
TITLE "Love Somebody"
PERFORMER "Rick Springfield"
ISRC GBHCD1721632
INDEX 00 03:54:16
FILE "06 - Love Somebody.wav" WAVE
INDEX 01 00:00:00
TRACK 07 AUDIO
TITLE "Human Touch"
PERFORMER "Rick Springfield"
ISRC GBHCD1721633
INDEX 00 03:34:67
FILE "07 - Human Touch.wav" WAVE
INDEX 01 00:00:00
TRACK 08 AUDIO
TITLE "Celebrate Youth"
PERFORMER "Rick Springfield"
ISRC GBHCD1721634
INDEX 00 04:11:13
FILE "08 - Celebrate Youth.wav" WAVE
INDEX 01 00:00:00
TRACK 09 AUDIO
TITLE "World Start Turning"
PERFORMER "Rick Springfield"
ISRC GBHCD1721635
INDEX 00 03:56:02
FILE "09 - World Start Turning.wav" WAVE
INDEX 01 00:00:00
TRACK 10 AUDIO
TITLE "State Of The Heart"
PERFORMER "Rick Springfield"
ISRC GBHCD1721636
INDEX 00 05:34:48
FILE "10 - State Of The Heart.wav" WAVE
INDEX 01 00:00:00
TRACK 11 AUDIO
TITLE "Irreplaceable"
PERFORMER "Rick Springfield"
ISRC GBHCD1721637
INDEX 00 04:48:48
FILE "11 - Irreplaceable.wav" WAVE
INDEX 01 00:00:00
TRACK 12 AUDIO
TITLE "April 24th, 1981 / My Father's Chair"
PERFORMER "Rick Springfield"
ISRC GBHCD1721638
INDEX 00 03:44:10
FILE "12 - April 24th, 1981 - My Father's Chair.wav" WAVE
INDEX 01 00:00:00

Об исполнителе (группе)

Рик Спрингфилд (Rick Springfield, наст. имя - Richard Lewis Springthorpe) родился 23 августа 1949 года в South Wentworthville, New South Wales. Австралийский музыкант, автор-исполнитель и актер.
В 1981-м Спрингфилд выпустил сингл ‘Jessie’s Girl’, который немедленно взлетел на верхушку хит-парада в США и получил статус ‘платинового’.
Не останавливаясь лишь на исполнительской деятельности, талантливый всесторонне Рик уехал в Голливуд, где началась и его актерская карьера – он принялся играть в сериалах. Спрингфилд появился в таких лентах, как ‘Человек на шесть миллионов долларов’, ‘Досье детектива Рокфорда’, ‘Чудо-женщина’, ‘Невероятный Халк’, ‘Звездный крейсер Галактика’ и нескольких других. Все это было в семидесятых и восьмидесятых, впрочем, и позже Спрингфилду удавалось совмещать и актерскую и музыкальную деятельность.
[torrents24.ru].t84341.torrent 
Торрент: Зарегистрирован [ 2019-05-21 16:00 ] · 501CC00298CED7F6E823691B9A2995D207CC2F63

Скачать .torrent

Скачать

8 KB

Статус: проверено
Скачан: 1 раз
Размер: 617 MB
terms.php
[Профиль] [ЛС]
Показать сообщения:    
Ответить на тему

Текущее время: 26-Июн 08:51

Часовой пояс: UTC + 3



Вы не можете начинать темы
Вы не можете отвечать на сообщения
Вы не можете редактировать свои сообщения
Вы не можете удалять свои сообщения
Вы не можете голосовать в опросах
Вы не можете прикреплять файлы к сообщениям
Вы можете скачивать файлы

Интересное в сети