Черная точка / Black Point (Дэвид Маккэй / David Mackay) [2002, Канада, триллер, криминальная драма, боевик, DVDRemux] MVO + Original (eng)

Ответить на тему
Статистика раздачи
Размер:  4,35 GB   |    Зарегистрирован:  1 месяц 14 дней   |    Скачан:  0 раз

Полного источника не было: Никогда

 
   
 
 
Автор Сообщение

Ведьмочка ®

Пол: Не указан

Стаж: 1 год 4 месяца

Сообщений: 117

Создавать темы 11-Май-2019 15:39

[Цитировать]

Черная точка
Black Point
Страна: Канада
Жанр: триллер, криминальная драма, боевик
Год выпуска: 2002
Продолжительность: 01:42:31
Перевод: профессиональный (многоголосый, закадровый)
Оригинальная аудиодорожка: английская
Субтитры: датские, финские, норвежские, шведские-Режиссёр: Дэвид Маккэй / David Mackay
В ролях: Дэвид Карузо, Сьюзэн Хэскелл, Томас Йен Гриффит, Гордон Тутусис, Мигель Сандоваль, Эйлин Педде, Алекс Брухански, Трэвис МакДональд, Шоун Реис, Майк Допуд-Описание: Мужчина бегущий от своего прошлого, женщина без будущего — оба играют в смертельные игры…
Большой груз прибыл из Малайзии в порт. Газ Трэвис приехал в порт, чтобы поменять три миллиона долларов для своего босса Малколма. Неожиданно появляются агенты ФБР. Завязывается перестрелка. Чтобы выжить и убежать, Газ открывает ответный огонь…- -Синхронизация не требовалась.-Качество: DVDRemux
Формат: MKV
Видео: 720x576 (4:3) @ 768x576, MPEG-2 Video / 5303 kbps / 25,000 fps /
Аудио 1: AC3, 48 kHz, 2ch, 384.00 kbps: [RUS]
Аудио 2: AC3, 48 kHz, 2ch, 384.00 kbps: [ENG]
Формат субтитров: оригинал
Разбивка на главы: да

DVDInfo

Title: Black Point 2002 DVD5 PAL-CultFilms™
Size: 4.30 Gb ( 4 506 832,00 KBytes ) - DVD-5
Enabled regions: 1, 2, 3, 4, 5, 6, 7, 8
VTS_01 :
Play Length: 01:42:31+00:01:54
Video: PAL 4:3 (720x576) VBR
Audio:
Not specified, AC3, 2/0 (L,R) ch, 384 kbps, Delay 0 mSec
Subtitles:
Dansk
Suomi
Norsk
Svenska
* Menus Information *
VIDEO_TS Menu
Video:
PAL 4:3 (720x576) VBR
Audio:
Not specified (Dolby AC3, 6 ch)
English Language Unit :
Title Menu
VTS_01 Menu
Video:
PAL 4:3 (720x576) VBR
Audio:
Not specified (Dolby AC3, 2 ch)
English Language Unit :
Root Menu

MediaInfo

Общее
Уникальный идентификатор : 35741287481973582629763364192634869681 (0x1AE385865944C4A62C15CD4F4DB517B1)
Полное имя : D:\Ремуксы\[AORE] Cult Films Remuxes\Black Point 2002\Black Point 2002.mkv
Формат : Matroska
Версия формата : Version 4
Размер файла : 4,35 Гбайт
Продолжительность : 1 ч. 42 м.
Режим общего битрейта : Переменный
Общий поток : 6079 Кбит/сек
Дата кодирования : UTC 2019-04-20 08:07:31
Программа кодирования : mkvmerge v33.1.0 ('Primrose') 64-bit
Библиотека кодирования : libebml v1.3.7 + libmatroska v1.5.0
Видео
Идентификатор : 1
Формат : MPEG Video
Версия формата : Version 2
Профиль формата : Main@Main
Настройки формата : BVOP
Параметр BVOP формата : Да
Параметр матрицы формата : По умолчанию
Параметр GOP формата : M=3, N=13
Структура изображения : Frame
Идентификатор кодека : V_MPEG2
Идентификатор кодека/Информация : MPEG 1 or 2 Video
Продолжительность : 1 ч. 42 м.
Вид битрейта : Переменный
Битрейт : 5303 Кбит/сек
Максимальный битрейт : 8700 Кбит/сек
Ширина : 720 пикселей
Высота : 576 пикселей
Соотношение сторон : 4:3
Режим частоты кадров : Постоянный
Частота кадров : 25,000 кадров/сек
Стандарт вещания : PAL
Цветовое пространство : YUV
Субдискретизация насыщенности : 4:2:0
Битовая глубина : 8 бит
Тип развёртки : Чересстрочная
Порядок развёртки : Верхнее поле первое
Метод сжатия : С потерями
Бит/(Пиксели*Кадры) : 0.511
Временной код первого кадра : 01:00:00:00
Оригинал временного кода : Group of pictures header
GOP, открыто/закрыто : Открыто
Размер потока : 3,80 Гбайт (87%)
Язык : English
Default : Нет
Forced : Нет
Основные цвета : BT.601 PAL
Характеристики трансфера : BT.470 System B/G
Коэффициенты матрицы : BT.470 System B/G
Аудио #1
Идентификатор : 2
Формат : AC-3
Формат/Информация : Audio Coding 3
Коммерческое название : Dolby Digital
Идентификатор кодека : A_AC3
Продолжительность : 1 ч. 42 м.
Вид битрейта : Постоянный
Битрейт : 384 Кбит/сек
Каналы : 2 канала
Channel layout : L R
Частота : 48,0 КГц
Частота кадров : 31,250 кадров/сек (1536 SPF)
Битовая глубина : 16 бит
Метод сжатия : С потерями
Размер потока : 282 Мбайт (6%)
Заголовок : MVO
Язык : Russian
ServiceKind/String : Complete Main
Default : Да
Forced : Нет
Аудио #2
Идентификатор : 3
Формат : AC-3
Формат/Информация : Audio Coding 3
Коммерческое название : Dolby Digital
Идентификатор кодека : A_AC3
Продолжительность : 1 ч. 42 м.
Вид битрейта : Постоянный
Битрейт : 384 Кбит/сек
Каналы : 2 канала
Channel layout : L R
Частота : 48,0 КГц
Частота кадров : 31,250 кадров/сек (1536 SPF)
Битовая глубина : 16 бит
Метод сжатия : С потерями
Размер потока : 282 Мбайт (6%)
Язык : English
ServiceKind/String : Complete Main
Default : Нет
Forced : Нет
Текст #1
Идентификатор : 4
Формат : VobSub
Режим смешивания : zlib
Идентификатор кодека : S_VOBSUB
Идентификатор кодека/Информация : Picture based subtitle format used on DVDs
Продолжительность : 1 ч. 39 м.
Битрейт : 3333 бит/сек
ElementCount : 611
Размер потока : 2,36 Мбайт (0%)
Язык : Danish
Default : Нет
Forced : Нет
Текст #2
Идентификатор : 5
Формат : VobSub
Режим смешивания : zlib
Идентификатор кодека : S_VOBSUB
Идентификатор кодека/Информация : Picture based subtitle format used on DVDs
Продолжительность : 1 ч. 39 м.
Битрейт : 3467 бит/сек
ElementCount : 611
Размер потока : 2,46 Мбайт (0%)
Язык : Finnish
Default : Нет
Forced : Нет
Текст #3
Идентификатор : 6
Формат : VobSub
Режим смешивания : zlib
Идентификатор кодека : S_VOBSUB
Идентификатор кодека/Информация : Picture based subtitle format used on DVDs
Продолжительность : 1 ч. 39 м.
Битрейт : 3233 бит/сек
ElementCount : 611
Размер потока : 2,29 Мбайт (0%)
Язык : Norwegian
Default : Нет
Forced : Нет
Текст #4
Идентификатор : 7
Формат : VobSub
Режим смешивания : zlib
Идентификатор кодека : S_VOBSUB
Идентификатор кодека/Информация : Picture based subtitle format used on DVDs
Продолжительность : 1 ч. 39 м.
Битрейт : 3469 бит/сек
ElementCount : 612
Размер потока : 2,46 Мбайт (0%)
Язык : Swedish
Default : Нет
Forced : Нет
Меню
00:00:00.000 : en:Chapter 01
00:05:44.240 : en:Chapter 02
00:18:40.080 : en:Chapter 03
00:25:23.840 : en:Chapter 04
00:35:11.200 : en:Chapter 05
00:43:41.840 : en:Chapter 06
00:48:30.440 : en:Chapter 07
00:53:35.680 : en:Chapter 08
00:59:14.200 : en:Chapter 09
01:06:14.880 : en:Chapter 10
01:13:10.880 : en:Chapter 11
01:19:25.280 : en:Chapter 12
01:22:27.280 : en:Chapter 13
01:31:21.320 : en:Chapter 14
01:36:19.280 : en:Chapter 15
01:39:35.840 : en:Chapter 16
01:42:30.040 : en:Chapter 17

Скриншоты

Скриншоты меню

DVD-Rip (720x544)DVD-Rip (640x432 )Всем мои фильмам нужны сиды, так что не уходите с раздачи!A CultFilms™ Remux
[torrents24.ru].t83450.torrent 
Торрент: Зарегистрирован [ 2019-05-11 15:40 ] · 6DF092321412AF7918373FC6F0F1C7F2A26864F1

Скачать .torrent

Скачать

22 KB

Статус: проверено
Скачан: 0 раз
Размер: 4,35 GB
terms.php
[Профиль] [ЛС]
Показать сообщения:    
Ответить на тему

Текущее время: 26-Июн 09:15

Часовой пояс: UTC + 3



Вы не можете начинать темы
Вы не можете отвечать на сообщения
Вы не можете редактировать свои сообщения
Вы не можете удалять свои сообщения
Вы не можете голосовать в опросах
Вы не можете прикреплять файлы к сообщениям
Вы можете скачивать файлы

Интересное в сети