(Rock) [CD] The Rainmakers - The Rainmakers [Mercury, 830 214-2 M-1, W.Germany] - 1986, FLAC (tracks+.cue), lossless

Ответить на тему
Статистика раздачи
Размер:  242 MB   |    Зарегистрирован:  1 месяц 20 дней   |    Скачан:  0 раз

Полного источника не было: Никогда

 
   
 
 
Автор Сообщение

folk ®

Пол: Не указан

Стаж: 1 год 3 месяца

Сообщений: 136

Создавать темы 05-Май-2019 15:29

[Цитировать]

The Rainmakers / The Rainmakers
Жанр: Rock
Носитель: CD
Страна-производитель диска (релиза): W.Germany
Год издания: 1986
Издатель (лейбл): Mercury
Номер по каталогу: 830 214-2 M-1
Страна исполнителя (группы): USA
Аудиокодек: FLAC (*.flac)
Тип рипа: tracks+.cue
Продолжительность: 00:40:00
Источник: RED/GlenlivetRocks
Наличие сканов в содержимом раздачи: Front/Back/CD

Треклист:
01. Rockin' At The T-Dance
02. Downstream
03. Let My People Go-Go
04. Doomsville
05. Big Fat Blonde
06. Long Gone Long
07. The One That Got Away
08. Government Cheese
09. Drinkin' On The Job
10. Nobody Knows
11. Information

Лог создания рипа

Exact Audio Copy V1.3 from 2. September 2016
EAC extraction logfile from 26. January 2019, 17:21
The Rainmakers / The Rainmakers
Used drive : SONY DVD RW AD-7280S Adapter: 1 ID: 1
Read mode : Secure
Utilize accurate stream : Yes
Defeat audio cache : Yes
Make use of C2 pointers : No
Read offset correction : 48
Overread into Lead-In and Lead-Out : No
Fill up missing offset samples with silence : Yes
Delete leading and trailing silent blocks : No
Null samples used in CRC calculations : Yes
Used interface : Native Win32 interface for Win NT & 2000
Gap handling : Appended to previous track
Used output format : User Defined Encoder
Selected bitrate : 768 kBit/s
Quality : High
Add ID3 tag : No
Command line compressor : C:\Program Files (x86)\Exact Audio Copy\FLAC\FLAC.EXE
Additional command line options : -8 -e -p -V -T "ARTIST=%artist%" -T "TITLE=%title%" -T "ALBUM=%albumtitle%" -T "DATE=%year%" -T "TRACKNUMBER=%tracknr%" -T "GENRE=%genre%" -T "PERFORMER=%albuminterpret%" -T "COMPOSER=%composer%" %haslyrics%--tag-from-file=LYRICS="%lyricsfile%"%haslyrics% -T "ALBUMARTIST=%albumartist%" -T "DISCNUMBER=%cdnumber%" -T "TOTALDISCS=%totalcds%" -T "TOTALTRACKS=%numtracks%" -T "COMMENT=%comment%" %source% -o %dest%
TOC of the extracted CD
Track | Start | Length | Start sector | End sector
---------------------------------------------------------
1 | 0:00.32 | 3:19.65 | 32 | 15021
2 | 3:20.22 | 3:33.13 | 15022 | 31009
3 | 6:53.35 | 3:40.02 | 31010 | 47511
4 | 10:33.37 | 4:31.30 | 47512 | 67866
5 | 15:04.67 | 2:59.08 | 67867 | 81299
6 | 18:04.00 | 4:10.02 | 81300 | 100051
7 | 22:14.02 | 2:55.55 | 100052 | 113231
8 | 25:09.57 | 2:57.05 | 113232 | 126511
9 | 28:06.62 | 3:47.58 | 126512 | 143594
10 | 31:54.45 | 3:33.52 | 143595 | 159621
11 | 35:28.22 | 4:49.08 | 159622 | 181304
Track 1
Filename G:\__New\_EAC rips\The Rainmakers - The Rainmakers (1986) flac\01 - Rockin' at the T-Dance.wav
Pre-gap length 0:00:02.42
Peak level 84.2 %
Extraction speed 2.9 X
Track quality 99.9 %
Test CRC B6AEA16A
Copy CRC B6AEA16A
Accurately ripped (confidence 26) [367403AC] (AR v2)
Copy OK
Track 2
Filename G:\__New\_EAC rips\The Rainmakers - The Rainmakers (1986) flac\02 - Downstream.wav
Peak level 89.0 %
Extraction speed 4.7 X
Track quality 100.0 %
Test CRC 67D38192
Copy CRC 67D38192
Accurately ripped (confidence 26) [F6E67161] (AR v2)
Copy OK
Track 3
Filename G:\__New\_EAC rips\The Rainmakers - The Rainmakers (1986) flac\03 - Let My People Go-Go.wav
Pre-gap length 0:00:02.24
Peak level 76.4 %
Extraction speed 5.1 X
Track quality 100.0 %
Test CRC 9A1FE752
Copy CRC 9A1FE752
Accurately ripped (confidence 27) [2C2DD757] (AR v2)
Copy OK
Track 4
Filename G:\__New\_EAC rips\The Rainmakers - The Rainmakers (1986) flac\04 - Doomsville.wav
Pre-gap length 0:00:02.02
Peak level 67.6 %
Extraction speed 5.7 X
Track quality 100.0 %
Test CRC CADBDF47
Copy CRC CADBDF47
Accurately ripped (confidence 27) [1D11F0CD] (AR v2)
Copy OK
Track 5
Filename G:\__New\_EAC rips\The Rainmakers - The Rainmakers (1986) flac\05 - Big Fat Blonde.wav
Pre-gap length 0:00:02.46
Peak level 79.4 %
Extraction speed 5.7 X
Track quality 100.0 %
Test CRC D5DB1EA8
Copy CRC D5DB1EA8
Accurately ripped (confidence 26) [C9F99757] (AR v2)
Copy OK
Track 6
Filename G:\__New\_EAC rips\The Rainmakers - The Rainmakers (1986) flac\06 - Long Gone Long.wav
Pre-gap length 0:00:02.06
Peak level 73.9 %
Extraction speed 6.2 X
Track quality 100.0 %
Test CRC 467A3F81
Copy CRC 467A3F81
Accurately ripped (confidence 27) [AE309D0E] (AR v2)
Copy OK
Track 7
Filename G:\__New\_EAC rips\The Rainmakers - The Rainmakers (1986) flac\07 - The One That Got Away.wav
Pre-gap length 0:00:01.40
Peak level 76.3 %
Extraction speed 6.2 X
Track quality 100.0 %
Test CRC CE20766F
Copy CRC CE20766F
Accurately ripped (confidence 27) [D3DB04CB] (AR v2)
Copy OK
Track 8
Filename G:\__New\_EAC rips\The Rainmakers - The Rainmakers (1986) flac\08 - Government Cheese.wav
Pre-gap length 0:00:01.62
Peak level 70.6 %
Extraction speed 6.4 X
Track quality 100.0 %
Test CRC C0CCBB74
Copy CRC C0CCBB74
Accurately ripped (confidence 27) [D7C67F32] (AR v2)
Copy OK
Track 9
Filename G:\__New\_EAC rips\The Rainmakers - The Rainmakers (1986) flac\09 - Drinkin' on the Job.wav
Pre-gap length 0:00:02.36
Peak level 67.6 %
Extraction speed 6.8 X
Track quality 100.0 %
Test CRC BEA4BB96
Copy CRC BEA4BB96
Accurately ripped (confidence 26) [D6085E3A] (AR v2)
Copy OK
Track 10
Filename G:\__New\_EAC rips\The Rainmakers - The Rainmakers (1986) flac\10 - Nobody Knows.wav
Pre-gap length 0:00:01.89
Peak level 65.3 %
Extraction speed 7.1 X
Track quality 100.0 %
Test CRC 81F91A58
Copy CRC 81F91A58
Accurately ripped (confidence 26) [BB8E8142] (AR v2)
Copy OK
Track 11
Filename G:\__New\_EAC rips\The Rainmakers - The Rainmakers (1986) flac\11 - Information.wav
Pre-gap length 0:00:01.20
Peak level 73.7 %
Extraction speed 7.6 X
Track quality 100.0 %
Test CRC 0968AAB8
Copy CRC 0968AAB8
Accurately ripped (confidence 27) [25854BC7] (AR v2)
Copy OK
All tracks accurately ripped
No errors occurred
End of status report
---- CUETools DB Plugin V2.1.6
[CTDB TOCID: MlsQNH9msRxh72i9nqUnGhU5n.I-] found
Submit result: MlsQNH9msRxh72i9nqUnGhU5n.I- has been confirmed
Track | CTDB Status
1 | (34/35) Accurately ripped
2 | (34/35) Accurately ripped
3 | (35/35) Accurately ripped
4 | (34/35) Accurately ripped
5 | (33/35) Accurately ripped
6 | (35/35) Accurately ripped
7 | (34/35) Accurately ripped
8 | (34/35) Accurately ripped
9 | (34/35) Accurately ripped
10 | (34/35) Accurately ripped
11 | (35/35) Accurately ripped
==== Log checksum 5AE3654C6AA9992F8D7DCEA122A0CA13B20C76B6CCA8F58A260415432FD6C6D8 ====

Содержание индексной карты (.CUE)

REM GENRE Rock
REM DATE 1986
REM DISCID 7F09710B
REM COMMENT "ExactAudioCopy v1.3"
CATALOG 0042283021426
PERFORMER "The Rainmakers"
TITLE "The Rainmakers"
REM COMPOSER ""
FILE "01 - Rockin' at the T-Dance.wav" WAVE
TRACK 01 AUDIO
TITLE "Rockin' at the T-Dance"
PERFORMER "The Rainmakers"
REM COMPOSER ""
PREGAP 00:00:32
INDEX 01 00:00:00
FILE "02 - Downstream.wav" WAVE
TRACK 02 AUDIO
TITLE "Downstream"
PERFORMER "The Rainmakers"
REM COMPOSER ""
INDEX 01 00:00:00
TRACK 03 AUDIO
TITLE "Let My People Go-Go"
PERFORMER "The Rainmakers"
REM COMPOSER ""
INDEX 00 03:30:70
FILE "03 - Let My People Go-Go.wav" WAVE
INDEX 01 00:00:00
TRACK 04 AUDIO
TITLE "Doomsville"
PERFORMER "The Rainmakers"
REM COMPOSER ""
INDEX 00 03:38:00
FILE "04 - Doomsville.wav" WAVE
INDEX 01 00:00:00
TRACK 05 AUDIO
TITLE "Big Fat Blonde"
PERFORMER "The Rainmakers"
REM COMPOSER ""
INDEX 00 04:28:70
FILE "05 - Big Fat Blonde.wav" WAVE
INDEX 01 00:00:00
TRACK 06 AUDIO
TITLE "Long Gone Long"
PERFORMER "The Rainmakers"
REM COMPOSER ""
INDEX 00 02:57:03
FILE "06 - Long Gone Long.wav" WAVE
INDEX 01 00:00:00
TRACK 07 AUDIO
TITLE "The One That Got Away"
PERFORMER "The Rainmakers"
REM COMPOSER ""
INDEX 00 04:08:47
FILE "07 - The One That Got Away.wav" WAVE
INDEX 01 00:00:00
TRACK 08 AUDIO
TITLE "Government Cheese"
PERFORMER "The Rainmakers"
REM COMPOSER ""
INDEX 00 02:54:08
FILE "08 - Government Cheese.wav" WAVE
INDEX 01 00:00:00
TRACK 09 AUDIO
TITLE "Drinkin' on the Job"
PERFORMER "The Rainmakers"
REM COMPOSER ""
INDEX 00 02:54:53
FILE "09 - Drinkin' on the Job.wav" WAVE
INDEX 01 00:00:00
TRACK 10 AUDIO
TITLE "Nobody Knows"
PERFORMER "The Rainmakers"
REM COMPOSER ""
INDEX 00 03:45:66
FILE "10 - Nobody Knows.wav" WAVE
INDEX 01 00:00:00
TRACK 11 AUDIO
TITLE "Information"
PERFORMER "The Rainmakers"
REM COMPOSER ""
INDEX 00 03:32:37
FILE "11 - Information.wav" WAVE
INDEX 01 00:00:00

AccurateRip

[CUETools log; Date: 03.05.2019 17:05:07; Version: 2.1.5]
Pregap length 00:00:32.
[CTDB TOCID: MlsQNH9msRxh72i9nqUnGhU5n.I-] found.
Track | CTDB Status
1 | (36/37) Accurately ripped
2 | (36/37) Accurately ripped
3 | (37/37) Accurately ripped
4 | (36/37) Accurately ripped
5 | (35/37) Accurately ripped
6 | (37/37) Accurately ripped
7 | (36/37) Accurately ripped
8 | (36/37) Accurately ripped
9 | (36/37) Accurately ripped
10 | (36/37) Accurately ripped
11 | (37/37) Accurately ripped
[AccurateRip ID: 00104835-008d2ed9-7f09710b] found.
Track [ CRC | V2 ] Status
01 [d495a8a2|367403ac] (40+26/66) Accurately ripped
02 [7cd06a5e|f6e67161] (40+26/66) Accurately ripped
03 [6727f008|2c2dd757] (40+27/67) Accurately ripped
04 [8be4eab1|1d11f0cd] (39+27/66) Accurately ripped
05 [2d15c66b|c9f99757] (39+26/65) Accurately ripped
06 [81a6ba99|ae309d0e] (40+27/67) Accurately ripped
07 [c585d274|d3db04cb] (40+27/67) Accurately ripped
08 [0bbc54be|d7c67f32] (40+27/67) Accurately ripped
09 [8ebd43fd|d6085e3a] (39+26/65) Accurately ripped
10 [ce491c9c|bb8e8142] (40+26/66) Accurately ripped
11 [78c66a74|25854bc7] (41+27/68) Accurately ripped
Offsetted by -2237:
01 [300d2bde] (00/66) No match (V2 was not tested)
02 [2ad158c6] (00/66) No match (V2 was not tested)
03 [f76b713d] (00/67) No match (V2 was not tested)
04 [b844b6a3] (00/66) No match (V2 was not tested)
05 [52e681a1] (00/65) No match (V2 was not tested)
06 [fae2327f] (00/67) No match (V2 was not tested)
07 [d3fcadac] (00/67) No match (V2 was not tested)
08 [8de0d550] (00/67) No match (V2 was not tested)
09 [02cb3888] (00/65) No match (V2 was not tested)
10 [dfc9ffa5] (00/66) No match (V2 was not tested)
11 [73fab9d3] (00/68) No match (V2 was not tested)
Track Peak [ CRC32 ] [W/O NULL] [ LOG ]
-- 89,0 [02C4BE8C] [EE1347EE]
01 84,2 [B6AEA16A] [D77534B8] CRC32
02 89,0 [67D38192] [CC430AFF] CRC32
03 76,4 [9A1FE752] [A4B6A48A] CRC32
04 67,6 [CADBDF47] [2912EC0B] CRC32
05 79,4 [D5DB1EA8] [640CCC5F] CRC32
06 73,9 [467A3F81] [3A9990EB] CRC32
07 76,3 [CE20766F] [50020D31] CRC32
08 70,6 [C0CCBB74] [F1C05421] CRC32
09 67,6 [BEA4BB96] [D3EB58CE] CRC32
10 65,3 [81F91A58] [FACE558A] CRC32
11 73,7 [0968AAB8] [2DD0FA98] CRC32
[torrents24.ru].t82912.torrent 
Торрент: Зарегистрирован [ 2019-05-05 15:30 ] · FEADD1DABC06F6A9202683BAD80B133E821D255B

Скачать .torrent

Скачать

20 KB

Статус: проверено
Скачан: 0 раз
Размер: 242 MB
terms.php
[Профиль] [ЛС]
Показать сообщения:    
Ответить на тему

Текущее время: 26-Июн 09:23

Часовой пояс: UTC + 3



Вы не можете начинать темы
Вы не можете отвечать на сообщения
Вы не можете редактировать свои сообщения
Вы не можете удалять свои сообщения
Вы не можете голосовать в опросах
Вы не можете прикреплять файлы к сообщениям
Вы можете скачивать файлы

Интересное в сети