(Pop/Rock) [CD] Rúzsa Magdolna (Ruzsa Magdolna) - Lélekcirkusz (Lelekcirkusz) - 2019, FLAC (tracks+.cue), lossless

Ответить на тему
Статистика раздачи
Размер:  312 MB   |    Зарегистрирован:  1 месяц 23 дня   |    Скачан:  0 раз

Полного источника не было: Никогда

 
   
 
 
Автор Сообщение

folk ®

Пол: Не указан

Стаж: 1 год 3 месяца

Сообщений: 136

Создавать темы 02-Май-2019 16:24

[Цитировать]

Rúzsa Magdolna / Lélekcirkusz(2019) Жанр: Pop/Rock
Носитель: CD
Страна-производитель диска (релиза): Hungary
Год издания: 2019
Издатель (лейбл): RM
Номер по каталогу: 5999860463023
Страна исполнителя (группы): Hungary
Аудиокодек: FLAC (*.flac)
Тип рипа: tracks+.cue
Продолжительность: 00:43:18
Источник: Naftamusic
Наличие сканов в содержимом раздачи: да
Корректность рипа: В оригинале не было применено сжатие при конвертировании во Флак (FLAC Level 0). Для приведения в соответствие правилам пережато во FLAC Level 5 с сохранением тэгов


01 - A bohóc (00:02:41)
02 - Lélekcirkusz (00:01:24)
03 - Széldal (00:03:39)
04 - Nekem nem szabad (00:03:19)
05 - Ne eressze el (00:03:20)
06 - Kívánj nekem boldog hétköznapokat (00:05:00)
07 - Gondolj rám (00:03:56)
08 - Egyszer (00:04:00)
09 - A kabát alatt (00:01:36)
10 - Angyal mellettem (00:03:41)
11 - Boldog, aki melletted ébred fel (00:02:55)
12 - Milyen jó lenne (00:03:53)
13 - Még egy dal (00:03:53)

Лог создания рипа

Exact Audio Copy V1.3 from 2. September 2016
EAC extraction logfile from 27. April 2019, 16:35
Rúzsa Magdolna / Lélekcirkusz
Used drive : PLEXTOR PX-891SAF PLUS Adapter: 1 ID: 0
Read mode : Secure
Utilize accurate stream : Yes
Defeat audio cache : Yes
Make use of C2 pointers : No
Read offset correction : 6
Overread into Lead-In and Lead-Out : No
Fill up missing offset samples with silence : Yes
Delete leading and trailing silent blocks : No
Null samples used in CRC calculations : Yes
Used interface : Native Win32 interface for Win NT & 2000
Gap handling : Appended to previous track
Used output format : User Defined Encoder
Selected bitrate : 1024 kBit/s
Quality : High
Add ID3 tag : No
Command line compressor : C:\Program Files (x86)\Exact Audio Copy\Flac\flac.exe
Additional command line options : -0 -V -T "ARTIST=%artist%" -T "TITLE=%title%" -T "ALBUM=%albumtitle%" -T "DATE=%year%" -T "TRACKNUMBER=%tracknr%" -T "TOTALTRACKS=%numtracks%" -T "GENRE=%genre%" -T "COMMENT=Naftamusic Release!" %source%
TOC of the extracted CD
Track | Start | Length | Start sector | End sector
---------------------------------------------------------
1 | 0:00.00 | 2:40.41 | 0 | 12040
2 | 2:40.41 | 1:24.22 | 12041 | 18362
3 | 4:04.63 | 3:38.62 | 18363 | 34774
4 | 7:43.50 | 3:18.55 | 34775 | 49679
5 | 11:02.30 | 3:20.33 | 49680 | 64712
6 | 14:22.63 | 5:00.35 | 64713 | 87247
7 | 19:23.23 | 3:55.54 | 87248 | 104926
8 | 23:19.02 | 4:00.30 | 104927 | 122956
9 | 27:19.32 | 1:36.07 | 122957 | 130163
10 | 28:55.39 | 3:40.69 | 130164 | 146732
11 | 32:36.33 | 2:54.67 | 146733 | 159849
12 | 35:31.25 | 3:52.72 | 159850 | 177321
13 | 39:24.22 | 3:53.30 | 177322 | 194826
Track 1
Filename E:\Nafta Releases\Rúzsa Magdolna - Lélekcirkusz (2019)[FLAC] - Naftamusic\01 - A bohóc.wav
Pre-gap length 0:00:02.00
Peak level 98.8 %
Extraction speed 2.4 X
Track quality 100.0 %
Test CRC 2264799A
Copy CRC 2264799A
Track not present in AccurateRip database
Copy OK
Track 2
Filename E:\Nafta Releases\Rúzsa Magdolna - Lélekcirkusz (2019)[FLAC] - Naftamusic\02 - Lélekcirkusz.wav
Peak level 95.5 %
Extraction speed 1.4 X
Track quality 99.8 %
Test CRC 4561A68D
Copy CRC 4561A68D
Track not present in AccurateRip database
Copy OK
Track 3
Filename E:\Nafta Releases\Rúzsa Magdolna - Lélekcirkusz (2019)[FLAC] - Naftamusic\03 - Széldal.wav
Peak level 98.8 %
Extraction speed 2.8 X
Track quality 100.0 %
Test CRC 39C0BB84
Copy CRC 39C0BB84
Track not present in AccurateRip database
Copy OK
Track 4
Filename E:\Nafta Releases\Rúzsa Magdolna - Lélekcirkusz (2019)[FLAC] - Naftamusic\04 - Nekem nem szabad.wav
Peak level 98.8 %
Extraction speed 3.0 X
Track quality 100.0 %
Test CRC B9950BF6
Copy CRC B9950BF6
Track not present in AccurateRip database
Copy OK
Track 5
Filename E:\Nafta Releases\Rúzsa Magdolna - Lélekcirkusz (2019)[FLAC] - Naftamusic\05 - Ne eressze el.wav
Peak level 98.8 %
Extraction speed 3.2 X
Track quality 100.0 %
Test CRC 59B62DF0
Copy CRC 59B62DF0
Track not present in AccurateRip database
Copy OK
Track 6
Filename E:\Nafta Releases\Rúzsa Magdolna - Lélekcirkusz (2019)[FLAC] - Naftamusic\06 - Kívánj nekem boldog hétköznapokat.wav
Peak level 98.8 %
Extraction speed 3.0 X
Track quality 99.9 %
Test CRC 8FE7DC68
Copy CRC 8FE7DC68
Track not present in AccurateRip database
Copy OK
Track 7
Filename E:\Nafta Releases\Rúzsa Magdolna - Lélekcirkusz (2019)[FLAC] - Naftamusic\07 - Gondolj rám.wav
Peak level 98.8 %
Extraction speed 3.0 X
Track quality 99.9 %
Test CRC 1BEC41F1
Copy CRC 1BEC41F1
Track not present in AccurateRip database
Copy OK
Track 8
Filename E:\Nafta Releases\Rúzsa Magdolna - Lélekcirkusz (2019)[FLAC] - Naftamusic\08 - Egyszer.wav
Peak level 98.8 %
Extraction speed 4.0 X
Track quality 100.0 %
Test CRC 7E173FC0
Copy CRC 7E173FC0
Track not present in AccurateRip database
Copy OK
Track 9
Filename E:\Nafta Releases\Rúzsa Magdolna - Lélekcirkusz (2019)[FLAC] - Naftamusic\09 - A kabát alatt.wav
Peak level 98.8 %
Extraction speed 3.4 X
Track quality 100.0 %
Test CRC D137D244
Copy CRC D137D244
Track not present in AccurateRip database
Copy OK
Track 10
Filename E:\Nafta Releases\Rúzsa Magdolna - Lélekcirkusz (2019)[FLAC] - Naftamusic\10 - Angyal mellettem.wav
Peak level 96.7 %
Extraction speed 4.2 X
Track quality 100.0 %
Test CRC FDCD3BD6
Copy CRC FDCD3BD6
Track not present in AccurateRip database
Copy OK
Track 11
Filename E:\Nafta Releases\Rúzsa Magdolna - Lélekcirkusz (2019)[FLAC] - Naftamusic\11 - Boldog, aki melletted ébred fel.wav
Peak level 98.8 %
Extraction speed 4.2 X
Track quality 100.0 %
Test CRC 2D0C1FA1
Copy CRC 2D0C1FA1
Track not present in AccurateRip database
Copy OK
Track 12
Filename E:\Nafta Releases\Rúzsa Magdolna - Lélekcirkusz (2019)[FLAC] - Naftamusic\12 - Milyen jó lenne.wav
Peak level 98.8 %
Extraction speed 4.5 X
Track quality 100.0 %
Test CRC 9D8F8885
Copy CRC 9D8F8885
Track not present in AccurateRip database
Copy OK
Track 13
Filename E:\Nafta Releases\Rúzsa Magdolna - Lélekcirkusz (2019)[FLAC] - Naftamusic\13 - Még egy dal.wav
Peak level 98.8 %
Extraction speed 3.7 X
Track quality 99.9 %
Test CRC 9F6AEE41
Copy CRC 9F6AEE41
Track not present in AccurateRip database
Copy OK
None of the tracks are present in the AccurateRip database
No errors occurred
End of status report
==== Log checksum D8E6784056B93C4596C32799BD10FA18666B74FF49624D7C49E40F0C9251792B ====

Содержание индексной карты (.CUE)

REM GENRE Pop
REM DATE 2019
REM DISCID AA0A250D
REM COMMENT "ExactAudioCopy v1.3"
PERFORMER "Rúzsa Magdolna"
TITLE "Lélekcirkusz"
REM COMPOSER ""
FILE "01 - A bohóc.wav" WAVE
TRACK 01 AUDIO
TITLE "A bohóc"
PERFORMER "Rúzsa Magdolna"
REM COMPOSER ""
INDEX 01 00:00:00
FILE "02 - Lélekcirkusz.wav" WAVE
TRACK 02 AUDIO
TITLE "Lélekcirkusz"
PERFORMER "Rúzsa Magdolna"
REM COMPOSER ""
INDEX 01 00:00:00
FILE "03 - Széldal.wav" WAVE
TRACK 03 AUDIO
TITLE "Széldal"
PERFORMER "Rúzsa Magdolna"
REM COMPOSER ""
INDEX 01 00:00:00
FILE "04 - Nekem nem szabad.wav" WAVE
TRACK 04 AUDIO
TITLE "Nekem nem szabad"
PERFORMER "Rúzsa Magdolna"
REM COMPOSER ""
INDEX 01 00:00:00
FILE "05 - Ne eressze el.wav" WAVE
TRACK 05 AUDIO
TITLE "Ne eressze el"
PERFORMER "Rúzsa Magdolna"
REM COMPOSER ""
INDEX 01 00:00:00
FILE "06 - Kívánj nekem boldog hétköznapokat.wav" WAVE
TRACK 06 AUDIO
TITLE "Kívánj nekem boldog hétköznapokat"
PERFORMER "Rúzsa Magdolna"
REM COMPOSER ""
INDEX 01 00:00:00
FILE "07 - Gondolj rám.wav" WAVE
TRACK 07 AUDIO
TITLE "Gondolj rám"
PERFORMER "Rúzsa Magdolna"
REM COMPOSER ""
INDEX 01 00:00:00
FILE "08 - Egyszer.wav" WAVE
TRACK 08 AUDIO
TITLE "Egyszer"
PERFORMER "Rúzsa Magdolna"
REM COMPOSER ""
INDEX 01 00:00:00
FILE "09 - A kabát alatt.wav" WAVE
TRACK 09 AUDIO
TITLE "A kabát alatt"
PERFORMER "Rúzsa Magdolna"
REM COMPOSER ""
INDEX 01 00:00:00
FILE "10 - Angyal mellettem.wav" WAVE
TRACK 10 AUDIO
TITLE "Angyal mellettem"
PERFORMER "Rúzsa Magdolna"
REM COMPOSER ""
INDEX 01 00:00:00
FILE "11 - Boldog, aki melletted ébred fel.wav" WAVE
TRACK 11 AUDIO
TITLE "Boldog, aki melletted ébred fel"
PERFORMER "Rúzsa Magdolna"
REM COMPOSER ""
INDEX 01 00:00:00
FILE "12 - Milyen jó lenne.wav" WAVE
TRACK 12 AUDIO
TITLE "Milyen jó lenne"
PERFORMER "Rúzsa Magdolna"
REM COMPOSER ""
INDEX 01 00:00:00
FILE "13 - Még egy dal.wav" WAVE
TRACK 13 AUDIO
TITLE "Még egy dal"
PERFORMER "Rúzsa Magdolna"
REM COMPOSER ""
INDEX 01 00:00:00

Об альбоме (сборнике)

Egy igazi Presser/Rúzsa album! Rúzsa Magdi mentorával, Presser Gáborral készített közös lemezt.
Nem volt egyszerű elénekelni ezt a lélekcirkuszt. Ezek olyan dolgok, amiket csendben megélünk, de hallgatunk róluk. Miközben jöttek velem szemben a sorok, végig képeket láttam a múltból, a jelenből vagy éppen a még meg nem történt esetleges jövőmből. Nem fért bele a hazugság vagy szépítgetés, mert a bohóc most nem csak kifelé énekelt, hanem nagyon is magának, magáról.
Láttam a szomorú arcomat, a szenvedőt, vagy a bátrat, a mosolygóst, a kuncogót, a szerelmest, a jól otthagyottat, a reményteli harcost, a kicsit és a nagyot. Mindig is foglalkoztatott, hogy mért vagyok én itt? Egyszer csak kitisztul, hogy talán pont a nagy attrakció miatt. Már ha kiderül, hogy melyik is az.
Ha kívülről nézzük, tényleg az van, hogy az élet, a lélek folyamatosan háló nélkül szaltózik, az meg, hogy hogy sikerült a mutatvány majd egyszer valahol a legvégén kiderül. Addig meg lesz dobpergés és szólnak a harsonák, lesz zene és tánc, lehet néha nem úgy sikerül, ahogy kéne, akkor majd elesek és felállok és próbálkozom újra.
De a nagy trükk, hogy bohóc vagyok, van egy jó nagy rúzsom, amivel akkor is mosolyt tudok magamra és másokra festeni, ha belül nagy viharok tombolnak, a közönség meg nevet és tapsol, néha pityereg is örömében, és akkor a bohóc is tényleg vidám.
No meg van egy trombitám. Megfújom és szétnyílik a függöny, ott állok a színpad középen, és megnyugszom. Becsukom a szemem és otthon vagyok.
Azt meg, hogy mi a játék és mi a valóság, csak a bohóc tudja legbelül.
[torrents24.ru].t82585.torrent 
Торрент: Зарегистрирован [ 2019-05-02 16:25 ] · 68668D068BD9A139715269D8BEE259ADA82C9771

Скачать .torrent

Скачать

14 KB

Статус: проверено
Скачан: 0 раз
Размер: 312 MB
terms.php
[Профиль] [ЛС]
Показать сообщения:    
Ответить на тему

Текущее время: 26-Июн 09:25

Часовой пояс: UTC + 3



Вы не можете начинать темы
Вы не можете отвечать на сообщения
Вы не можете редактировать свои сообщения
Вы не можете удалять свои сообщения
Вы не можете голосовать в опросах
Вы не можете прикреплять файлы к сообщениям
Вы можете скачивать файлы

Интересное в сети