Час Пик 2 / Rush Hour 2 (Бретт Рэтнер / Brett Ratner) [2001, США, Гонконг, боевик, комедия, BDRip] AVO (Андрей Гаврилов) + AVO (Сергей Визгунов) + DVO (SDI Media)

Ответить на тему
Статистика раздачи
Размер:  1,59 GB   |    Зарегистрирован:  1 месяц 24 дня   |    Скачан:  0 раз

Полного источника не было: Никогда

 
   
 
 
Автор Сообщение

Ведьмочка ®

Пол: Не указан

Стаж: 1 год 4 месяца

Сообщений: 117

Создавать темы 01-Май-2019 15:19

[Цитировать]

Час Пик 2 / Rush Hour 2
Страна: США, Гонконг
Жанр: боевик, комедия
Год выпуска: 2001
Продолжительность: 01:30:07

Перевод: Авторский (одноголосый закадровый) Андрей Гаврилов
Перевод 2: Авторский (одноголосый закадровый) Сергей Визгунов
Перевод 3: Профессиональный (двухголосый закадровый) SDI Media (отдельно)
Субтитры: нет
Режиссер: Бретт Рэтнер / Brett Ratner
В ролях: Джеки Чан, Крис Такер, Джон Лоун, Чжан Цзыи, Роселин Санчес, Алан Кинг, Харрис Юлин, Кеннет Цан, Лиза ЛоЦицеро
Описание: После отличной операции, связанной со спасением дочери китайского посла, Ли и Картер отправляются в Гонконг. Изумляясь достопримечательностям и современной архитектуре мегаполиса, новоиспеченные друзья наслаждаются отдыхом. Но культурный досуг нарушают тревожные новости. Американское посольство подверглось террористической атаке. Ли поручают расследовать дело. Картер решает помочь напарнику. Но обстоятельства обостряются в тот момент, когда Ли узнает о возможной причастности к нападению экс-напарника его отца Рикки Тана. После убийства Тана опасной преступницей Ли отстраняют от следствия. Вместе с Картером они вынуждены вернуться в Лос-Анджелес...

Сэмпл: http://multi-up.com/1230943
Качество видео: BDRip (Исходник BDRemux 1080p)
Формат видео: AVI
Видео: XviD 73, 720x304, (2,35:1), 23,976 fps, 1674 Кбит/с, 8 бит, 0.31 bit/pixel
Аудио: Русский (АС3, 6 ch (Front: L C R, Side: L R, LFE), 48,0 KHz, 448 Kbps) Андрей Гаврилов
Аудио 2: Русский (АС3, 2 ch (Front: L R), 48,0 KHz, 192 Kbps) Сергей Визгунов
Аудио 3: Русский (АС3, 2 ch (Front: L R), 48,0 KHz, 192 Kbps) SDI Media (отдельно)

MediaInfo

Общее
Полное имя : E:\Час_пик_-_2_(боевик, комедия, 2001 год)_Leonard Lew\Час_пик_-_2_(боевик, комедия, 2001 год)_Leonard Lew.avi
Формат : AVI
Формат/Информация : Audio Video Interleave
Размер файла : 1,47 Гбайт
Продолжительность : 1 ч. 30 м.
Общий поток : 2328 Кбит/сек
Программа кодирования : VirtualDubMod 1.5.10.2 (build 2540/release)
Библиотека кодирования : VirtualDubMod build 2540/release
Видео
Идентификатор : 0
Формат : MPEG-4 Visual
Профиль формата : Advanced Simple@L5
Параметр BVOP формата : 2
Параметр QPel формата : Нет
Параметр GMC формата : Без точки перехода
Параметр матрицы формата : Выборочная
Идентификатор кодека : XVID
Идентификатор кодека/Подсказка : XviD
Продолжительность : 1 ч. 30 м.
Битрейт : 1674 Кбит/сек
Ширина : 720 пикселей
Высота : 304 пикселя
Соотношение сторон : 2,35:1
Частота кадров : 23,976 (23976/1000) кадра/сек
Цветовое пространство : YUV
Субдискретизация насыщенности : 4:2:0
Битовая глубина : 8 бит
Тип развёртки : Прогрессивная
Метод сжатия : С потерями
Бит/(Пиксели*Кадры) : 0.319
Размер потока : 1,05 Гбайт (72%)
Библиотека кодирования : XviD 73
Аудио #1
Идентификатор : 1
Формат : AC-3
Формат/Информация : Audio Coding 3
Расширение режима : CM (complete main)
Параметр Endianness формата : Big
Идентификатор кодека : 2000
Продолжительность : 1 ч. 30 м.
Вид битрейта : Постоянный
Битрейт : 448 Кбит/сек
Каналы : 6 каналов
Расположение каналов : Front: L C R, Side: L R, LFE
Частота : 48,0 КГц
Частота кадров : 31,250 кадров/сек (1536 spf)
Метод сжатия : С потерями
Размер потока : 289 Мбайт (19%)
Выравнивание : Разделение по промежуткам
Продолжительность промежутка : 42 мс. (1,00 видеокадр)
Время предзагрузки промежутка : 500 мс.
Аудио #2
Идентификатор : 2
Формат : AC-3
Формат/Информация : Audio Coding 3
Расширение режима : CM (complete main)
Параметр Endianness формата : Big
Идентификатор кодека : 2000
Продолжительность : 1 ч. 30 м.
Вид битрейта : Постоянный
Битрейт : 192 Кбит/сек
Каналы : 2 канала
Расположение каналов : Front: L R
Частота : 48,0 КГц
Частота кадров : 31,250 кадров/сек (1536 spf)
Метод сжатия : С потерями
Размер потока : 124 Мбайт (8%)
Выравнивание : Разделение по промежуткам
Продолжительность промежутка : 42 мс. (1,00 видеокадр)
Время предзагрузки промежутка : 500 мс.

Скриншот c названием фильма

Скриншоты

[torrents24.ru].t82532.torrent 
Торрент: Зарегистрирован [ 2019-05-01 15:20 ] · 12CE37AC46FEADC468F4C40999DFB861D799488A

Скачать .torrent

Скачать

17 KB

Статус: проверено
Скачан: 0 раз
Размер: 1,59 GB
terms.php
[Профиль] [ЛС]
Показать сообщения:    
Ответить на тему

Текущее время: 26-Июн 09:11

Часовой пояс: UTC + 3



Вы не можете начинать темы
Вы не можете отвечать на сообщения
Вы не можете редактировать свои сообщения
Вы не можете удалять свои сообщения
Вы не можете голосовать в опросах
Вы не можете прикреплять файлы к сообщениям
Вы можете скачивать файлы

Интересное в сети