(Classic rock, Blues rock, Soft rock, Hebrew) [CD] Shalom Hanoch ‎– Vi-o-lence (א-לי-מות) - 1994, FLAC (tracks+.cue), lossless

Ответить на тему
Статистика раздачи
Размер:  334 MB   |    Зарегистрирован:  2 месяца 3 дня   |    Скачан:  0 раз

Полного источника не было: Никогда

 
   
 
 
Автор Сообщение

folk ®

Пол: Не указан

Стаж: 1 год 3 месяца

Сообщений: 136

Создавать темы 22-Апр-2019 15:44

[Цитировать]

-- --Shalom Hanoch ‎– Vi-o-lence (א-לי-מות) - 1994-- Жанр: Classic rock, Blues rock, Soft rock, Hebrew
Носитель: CD
Страна-производитель диска (релиза): Israel
Год издания оригинала: 1994
Издатель (лейбл): NMC
Номер по каталогу: 20125-2
Страна исполнителя (группы) :Israel
Дата / место записи: Hamon Studio
Аудио кодек: FLAC (.flac)
Тип рипа: (tracks + .cue)
Битрейт аудио: lossless
Наличие сканов в содержимом раздачи: full scans, png, 300 dpi
Продолжительность: 48:01
Источник (релизер): Моя коллекция, мой рип
Трэклист:
1. האמת הפשוטה = Простая правда (4:01)
2. א-לי-מות = На-си-лие (4:39)
3. המצב קשה = Дело плохо (3:46)
4. בזמן האחרון = В последнее время (4:15)
5. קולות בערפל = Голоса в тумане (4:38)
6. ללא מילים = Без слов (3:08)
7. לאט לאט = Не торопясь (4:05)
8. איך = Как? (3:50)
9. במכונית החדשה של אבא = На новой машине папы (4:50)
10. כל האמת בפנים = Вся правда внутри (4:26)
11. אל תוותר = Не отступайся (2:03)
12. טורפת עירומה = Голый хищник (3:53)

Лог создания рипа

Exact Audio Copy V1.3 from 2. September 2016
EAC extraction logfile from 7. April 2019, 6:18
שלום חנוך / א-לי-מות
Used drive : HL-DT-STDVDRAM GSA-T50N Adapter: 1 ID: 0
Read mode : Secure
Utilize accurate stream : Yes
Defeat audio cache : Yes
Make use of C2 pointers : No
Read offset correction : 667
Overread into Lead-In and Lead-Out : No
Fill up missing offset samples with silence : Yes
Delete leading and trailing silent blocks : No
Null samples used in CRC calculations : Yes
Used interface : Native Win32 interface for Win NT & 2000
Gap handling : Appended to previous track
Used output format : User Defined Encoder
Selected bitrate : 1024 kBit/s
Quality : High
Add ID3 tag : No
Command line compressor : C:\Program Files\Exact Audio Copy\Flac\flac.exe
Additional command line options : -V -8 -T "Genre=%genre%" -T "Artist=%artist%" -T "Title=%title%" -T "Album=%albumtitle%" -T "Date=%year%" -T "Tracknumber=%tracknr%" %source% -o %dest%
TOC of the extracted CD
Track | Start | Length | Start sector | End sector
---------------------------------------------------------
1 | 0:00.00 | 4:03.35 | 0 | 18259
2 | 4:03.35 | 4:41.70 | 18260 | 39404
3 | 8:45.30 | 3:49.70 | 39405 | 56649
4 | 12:35.25 | 4:17.72 | 56650 | 75996
5 | 16:53.22 | 4:40.55 | 75997 | 97051
6 | 21:34.02 | 3:10.23 | 97052 | 111324
7 | 24:44.25 | 4:07.45 | 111325 | 129894
8 | 28:51.70 | 3:52.32 | 129895 | 147326
9 | 32:44.27 | 4:50.60 | 147327 | 169136
10 | 37:35.12 | 4:26.55 | 169137 | 189141
11 | 42:01.67 | 2:05.60 | 189142 | 198576
12 | 44:07.52 | 3:53.30 | 198577 | 216081
Track 1
Filename C:\music\MG rips\שלום חנוך - א-לי-מות - 1994\01 - האמת הפשוטה.wav
Pre-gap length 0:00:02.00
Peak level 99.7 %
Extraction speed 2.4 X
Track quality 100.0 %
Test CRC 8113B970
Copy CRC 8113B970
Accurately ripped (confidence 3) [0CF526E5] (AR v2)
Copy OK
Track 2
Filename C:\music\MG rips\שלום חנוך - א-לי-מות - 1994\02 - א-לי-מות.wav
Peak level 100.0 %
Extraction speed 2.7 X
Track quality 100.0 %
Test CRC 0A0B68BB
Copy CRC 0A0B68BB
Accurately ripped (confidence 3) [DDE4D817] (AR v2)
Copy OK
Track 3
Filename C:\music\MG rips\שלום חנוך - א-לי-מות - 1994\03 - המצב קשה.wav
Pre-gap length 0:00:01.57
Peak level 99.7 %
Extraction speed 2.9 X
Track quality 100.0 %
Test CRC AEB4486A
Copy CRC AEB4486A
Accurately ripped (confidence 3) [EC0C672D] (AR v2)
Copy OK
Track 4
Filename C:\music\MG rips\שלום חנוך - א-לי-מות - 1994\04 - בזמן האחרון.wav
Pre-gap length 0:00:02.68
Peak level 98.0 %
Extraction speed 2.8 X
Track quality 99.9 %
Test CRC CC36B4E7
Copy CRC CC36B4E7
Accurately ripped (confidence 3) [F869FE3C] (AR v2)
Copy OK
Track 5
Filename C:\music\MG rips\שלום חנוך - א-לי-מות - 1994\05 - קולות בערפל.wav
Pre-gap length 0:00:01.39
Peak level 100.0 %
Extraction speed 3.4 X
Track quality 100.0 %
Test CRC 29F9F6D1
Copy CRC 29F9F6D1
Accurately ripped (confidence 3) [BCADC24B] (AR v2)
Copy OK
Track 6
Filename C:\music\MG rips\שלום חנוך - א-לי-מות - 1994\06 - ללא מילים.wav
Peak level 72.7 %
Extraction speed 3.5 X
Track quality 100.0 %
Test CRC CBBD8ACF
Copy CRC CBBD8ACF
Accurately ripped (confidence 3) [833E6112] (AR v2)
Copy OK
Track 7
Filename C:\music\MG rips\שלום חנוך - א-לי-מות - 1994\07 - לאט לאט.wav
Peak level 100.0 %
Extraction speed 3.7 X
Track quality 100.0 %
Test CRC 6C151327
Copy CRC 6C151327
Accurately ripped (confidence 3) [DE5B75F5] (AR v2)
Copy OK
Track 8
Filename C:\music\MG rips\שלום חנוך - א-לי-מות - 1994\08 - איך.wav
Peak level 100.0 %
Extraction speed 3.9 X
Track quality 100.0 %
Test CRC DD3C88EB
Copy CRC DD3C88EB
Accurately ripped (confidence 3) [C43BDB18] (AR v2)
Copy OK
Track 9
Filename C:\music\MG rips\שלום חנוך - א-לי-מות - 1994\09 - במכונית החדשה של אבא.wav
Peak level 100.0 %
Extraction speed 3.7 X
Track quality 99.9 %
Test CRC E727F305
Copy CRC E727F305
Accurately ripped (confidence 3) [C57BC9B7] (AR v2)
Copy OK
Track 10
Filename C:\music\MG rips\שלום חנוך - א-לי-מות - 1994\10 - כל האמת בפנים.wav
Peak level 100.0 %
Extraction speed 4.3 X
Track quality 100.0 %
Test CRC 18D23D73
Copy CRC 18D23D73
Accurately ripped (confidence 3) [287F0461] (AR v2)
Copy OK
Track 11
Filename C:\music\MG rips\שלום חנוך - א-לי-מות - 1994\11 - אל תוותר.wav
Peak level 71.2 %
Extraction speed 3.1 X
Track quality 99.9 %
Test CRC EAC441B9
Copy CRC EAC441B9
Accurately ripped (confidence 3) [14C64F92] (AR v2)
Copy OK
Track 12
Filename C:\music\MG rips\שלום חנוך - א-לי-מות - 1994\12 - טורפת עירומה.wav
Peak level 100.0 %
Extraction speed 3.9 X
Track quality 99.9 %
Test CRC 529A8E5F
Copy CRC 529A8E5F
Accurately ripped (confidence 3) [95A41F9F] (AR v2)
Copy OK
All tracks accurately ripped
No errors occurred
End of status report
==== Log checksum 0A216295C0670EAEEF50EF67ACB102CB1923D2C21A9E212A0E0E3AD6B221BD0C ====

Содержание индексной карты (.CUE):

REM GENRE Rock
REM DATE 1994
REM DISCID AF0B410C
REM COMMENT "ExactAudioCopy v1.3"
PERFORMER "שלום חנוך"
TITLE "א-לי-מות"
REM COMPOSER ""
FILE "01 - האמת הפשוטה.wav" WAVE
TRACK 01 AUDIO
TITLE "האמת הפשוטה"
PERFORMER "שלום חנוך"
REM COMPOSER ""
INDEX 01 00:00:00
FILE "02 - א-לי-מות.wav" WAVE
TRACK 02 AUDIO
TITLE "א-לי-מות"
PERFORMER "שלום חנוך"
REM COMPOSER ""
INDEX 01 00:00:00
TRACK 03 AUDIO
TITLE "המצב קשה"
PERFORMER "שלום חנוך"
REM COMPOSER ""
INDEX 00 04:40:13
FILE "03 - המצב קשה.wav" WAVE
INDEX 01 00:00:00
TRACK 04 AUDIO
TITLE "בזמן האחרון"
PERFORMER "שלום חנוך"
REM COMPOSER ""
INDEX 00 03:47:02
FILE "04 - בזמן האחרון.wav" WAVE
INDEX 01 00:00:00
TRACK 05 AUDIO
TITLE "קולות בערפל"
PERFORMER "שלום חנוך"
REM COMPOSER ""
INDEX 00 04:16:33
FILE "05 - קולות בערפל.wav" WAVE
INDEX 01 00:00:00
FILE "06 - ללא מילים.wav" WAVE
TRACK 06 AUDIO
TITLE "ללא מילים"
PERFORMER "שלום חנוך"
REM COMPOSER ""
INDEX 01 00:00:00
FILE "07 - לאט לאט.wav" WAVE
TRACK 07 AUDIO
TITLE "לאט לאט"
PERFORMER "שלום חנוך"
REM COMPOSER ""
INDEX 01 00:00:00
FILE "08 - איך.wav" WAVE
TRACK 08 AUDIO
TITLE "איך"
PERFORMER "שלום חנוך"
REM COMPOSER ""
INDEX 01 00:00:00
FILE "09 - במכונית החדשה של אבא.wav" WAVE
TRACK 09 AUDIO
TITLE "במכונית החדשה של אבא"
PERFORMER "שלום חנוך"
REM COMPOSER ""
INDEX 01 00:00:00
FILE "10 - כל האמת בפנים.wav" WAVE
TRACK 10 AUDIO
TITLE "כל האמת בפנים"
PERFORMER "שלום חנוך"
REM COMPOSER ""
INDEX 01 00:00:00
FILE "11 - אל תוותר.wav" WAVE
TRACK 11 AUDIO
TITLE "אל תוותר"
PERFORMER "שלום חנוך"
REM COMPOSER ""
INDEX 01 00:00:00
FILE "12 - טורפת עירומה.wav" WAVE
TRACK 12 AUDIO
TITLE "טורפת עירומה"
PERFORMER "שלום חנוך"
REM COMPOSER ""
INDEX 01 00:00:00

Лог проверки качества

Лог CUETools

[CUETools log; Date: 4/19/2019 8:37:27 PM; Version: 2.1.5]
[CTDB TOCID: i3S7Ri.dUT01uDqq0Vi7DmccW6I-] found.
Track | CTDB Status
1 | (11/11) Accurately ripped
2 | (11/11) Accurately ripped
3 | (11/11) Accurately ripped
4 | (11/11) Accurately ripped
5 | (11/11) Accurately ripped
6 | (11/11) Accurately ripped
7 | (11/11) Accurately ripped
8 | (11/11) Accurately ripped
9 | (11/11) Accurately ripped
10 | (11/11) Accurately ripped
11 | (11/11) Accurately ripped
12 | (11/11) Accurately ripped
[AccurateRip ID: 00161b91-00cd429d-af0b410c] found.
Track [ CRC | V2 ] Status
01 [8a9fad70|0cf526e5] (0+3/3) Accurately ripped
02 [bb00590b|dde4d817] (0+3/3) Accurately ripped
03 [61b3366c|ec0c672d] (0+3/3) Accurately ripped
04 [02489e25|f869fe3c] (0+3/3) Accurately ripped
05 [6257591d|bcadc24b] (0+3/3) Accurately ripped
06 [ce3fabfa|833e6112] (0+3/3) Accurately ripped
07 [4252d1dc|de5b75f5] (0+3/3) Accurately ripped
08 [a667e100|c43bdb18] (0+3/3) Accurately ripped
09 [74b716fb|c57bc9b7] (0+3/3) Accurately ripped
10 [3a4f43f4|287f0461] (0+3/3) Accurately ripped
11 [ac685c21|14c64f92] (0+3/3) Accurately ripped
12 [d245d27a|95a41f9f] (0+3/3) Accurately ripped
Track Peak [ CRC32 ] [W/O NULL] [ LOG ]
-- 100.0 [F648600B] [C57395A1]
01 99.7 [8113B970] [ACC34802] CRC32
02 100.0 [0A0B68BB] [C95291CB] CRC32
03 99.7 [AEB4486A] [11F5E2E7] CRC32
04 98.0 [CC36B4E7] [606F481C] CRC32
05 100.0 [29F9F6D1] [0B5C3E7D] CRC32
06 72.7 [CBBD8ACF] [61E51D7D] CRC32
07 100.0 [6C151327] [65015EFF] CRC32
08 100.0 [DD3C88EB] [79D3ACC3] CRC32
09 100.0 [E727F305] [62DC9411] CRC32
10 100.0 [18D23D73] [420337CD] CRC32
11 71.2 [EAC441B9] [1A598289] CRC32
12 100.0 [529A8E5F] [EA25EE04] CRC32

Замер динамического диапазона

foobar2000 1.3.10 / Замер динамического диапазона (DR) 1.1.1
Дата отчёта: 2019-04-19 20:37:29
--------------------------------------------------------------------------------
Анализ: שלום חנוך / א-לי-מות
--------------------------------------------------------------------------------
DR Пики RMS Продолжительность трека
--------------------------------------------------------------------------------
DR11 -0.02 дБ -13.12 дБ 4:03 01-האמת הפשוטה
DR11 0.00 дБ -13.30 дБ 4:42 02-א-לי-מות
DR12 -0.02 дБ -13.71 дБ 3:50 03-המצב קשה
DR11 -0.17 дБ -12.98 дБ 4:18 04-בזמן האחרון
DR12 0.00 дБ -13.33 дБ 4:41 05-קולות בערפל
DR11 -2.77 дБ -15.24 дБ 3:10 06-ללא מילים
DR12 0.00 дБ -13.29 дБ 4:08 07-לאט לאט
DR13 0.00 дБ -14.60 дБ 3:52 08-איך
DR11 0.00 дБ -12.30 дБ 4:51 09-במכונית החדשה של אבא
DR12 0.00 дБ -14.84 дБ 4:27 10-כל האמת בפנים
DR11 -2.94 дБ -16.01 дБ 2:06 11-אל תוותר
DR13 0.00 дБ -14.39 дБ 3:53 12-טורפת עירומה
--------------------------------------------------------------------------------
Количество треков: 12
Реальные значения DR: DR12
Частота: 44100 Гц
Каналов: 2
Разрядность: 16
Битрейт: 928 кбит/с
Кодек: FLAC
================================================================================
-

Back

Диск

Матрица

Состав

Arranged By, Producer, Keyboards, Piano, Voice – Moshe Levi (משה לוי)
Bass – Moshe Levi (משה לוי) (tracks: 7,9,12), Nir Graf (ניר גרף)
Cello – Karni Postel (קרני פוסטל) (tracks: 2,5)
Composed By, Arranged By, Lyrics By, Lead Vocals, Voice, Guitar – Shalom Hanoch (שלום חנוך)
Drum Programming – Kobi Naim (קובי נעים)
Drums, Percussion – Tamir Muskat (תמיר מוסקט)
Guitar – Ronnie Peterson (רוני פיטרסון) (tracks: 3,9,12), Yaron Levi (ירון לוי) (tracks: 12)
-
[torrents24.ru].t81599.torrent 
Торрент: Зарегистрирован [ 2019-04-22 15:45 ] · E6B91FB30FDBE99A9DB37BCF09DA0BFD2591B439

Скачать .torrent

Скачать

15 KB

Статус: проверено
Скачан: 0 раз
Размер: 334 MB
terms.php
[Профиль] [ЛС]
Показать сообщения:    
Ответить на тему

Текущее время: 26-Июн 08:50

Часовой пояс: UTC + 3



Вы не можете начинать темы
Вы не можете отвечать на сообщения
Вы не можете редактировать свои сообщения
Вы не можете удалять свои сообщения
Вы не можете голосовать в опросах
Вы не можете прикреплять файлы к сообщениям
Вы можете скачивать файлы

Интересное в сети