>> al barton (ex-smokie) & spirit of smokie что несомненно вызванный дух smokie в " /> (Pop-Rock / Soft Rock) [CD] Al Barton (ex. Smokie) - Precious - 1991, FLAC (image+.cue), lossless :: Torrents24.ru открытый BitTorrent

(Pop-Rock / Soft Rock) [CD] Al Barton (ex. Smokie) - Precious - 1991, FLAC (image+.cue), lossless

Ответить на тему
Статистика раздачи
Размер:  306 MB   |    Зарегистрирован:  2 месяца 5 дней   |    Скачан:  0 раз

Полного источника не было: Никогда

 
   
 
 
Автор Сообщение

folk ®

Пол: Не указан

Стаж: 1 год 3 месяца

Сообщений: 136

Создавать темы 20-Апр-2019 15:39

[Цитировать]

Al Barton
Precious

Жанр: Pop-Rock / Soft Rock
Носитель: CD
Страна-производитель диска (релиза): Пираты России
Год издания: 1991
Страна исполнителя (группы): UK
Аудиокодек: FLAC (*.flac)
Тип рипа: image+.cue
Продолжительность: 00:45:20
Источник: собственный рип
Наличие сканов в содержимом раздачи: да
Треклист:
01. Being With You
02. White Dust
03. Precious
04. Carry Your Heart (duet with Kristine Pettersen)
05. Soakin' Up The Sun
06. Drive, Drive, Drive
07. These Feelings For You
08. July '69
09. Running Away From Heaven
10. All Fall Down
Доп. информация:
Алан Бартон вокалист группы Smokie с 1986г. по 1995г. был рекомендован самим Крисом Норманом, предложив, что его место в группе может занять его друг и певец с очень похожим тембром голоса по имени Алан Бартон. После ухода с группы Нормана, начавшего свою сольную карьеру, Алан выпустил 6 полноформатных альбома, и этот сольный альбом "Precious". Второй сольный альбом был выпущен в память Алана Бартона и "увидел свет" уже спустя 6-ти лет после его смерти >>> Al Barton (ex-Smokie) & Spirit Of Smokie. Что несомненно, вызванный дух Smokie в этом альбоме безошибочно присутствует в его песнях, которые он написал и записал незадолго до своей трагической гибели.
Страничка в Wikipedia.-

Состав

Al Barton - Lead Vocal, 6 & 12 string electric guitar, 2 string acoustic guitar
Andy Wheelan - Lead guitar, mandolin, six string bass, classical guitar, acoustic guitar
Neil Ferguson - Electric guitar, keyboards
Steve Pinell - Drums
Marcus Clifle - Bass
Marin Bullard - Keyboards
Neil Hardcastle - Percussion
Backing vocals - Kath Parker, Jackie Ross
Guest vocal on "Carry Your Heart» - Kristine Pettersen
All lyrics by Al Barton except Running Away From Heaven - A. Barton, S. Humhprey
Produced by Al Barton, Neil Ferguson
Engineered by Neil Ferguson
-

Лог создания рипа

Exact Audio Copy V1.3 from 2. September 2016
EAC extraction logfile from 18. April 2019, 21:43
Al Barton / Precious
Used drive : ATAPI iHAS124 F Adapter: 1 ID: 0
Read mode : Secure
Utilize accurate stream : Yes
Defeat audio cache : Yes
Make use of C2 pointers : No
Read offset correction : 6
Overread into Lead-In and Lead-Out : No
Fill up missing offset samples with silence : Yes
Delete leading and trailing silent blocks : No
Null samples used in CRC calculations : Yes
Used interface : Native Win32 interface for Win NT & 2000
Used output format : User Defined Encoder
Selected bitrate : 128 kBit/s
Quality : High
Add ID3 tag : No
Command line compressor : C:\Users\Администратор\Documents\flac.exe
Additional command line options : -V -8 -T "Date=%year%" -T "Genre=%genre%" %source%
TOC of the extracted CD
Track | Start | Length | Start sector | End sector
---------------------------------------------------------
1 | 0:00.00 | 4:21.62 | 0 | 19636
2 | 4:21.62 | 4:50.58 | 19637 | 41444
3 | 9:12.45 | 4:28.32 | 41445 | 61576
4 | 13:41.02 | 3:50.38 | 61577 | 78864
5 | 17:31.40 | 4:13.12 | 78865 | 97851
6 | 21:44.52 | 4:18.28 | 97852 | 117229
7 | 26:03.05 | 4:42.30 | 117230 | 138409
8 | 30:45.35 | 3:09.47 | 138410 | 152631
9 | 33:55.07 | 4:51.60 | 152632 | 174516
10 | 38:46.67 | 4:03.20 | 174517 | 192761
Range status and errors
Selected range
Filename C:\Users\Администратор\Documents\-Nordic Wolf-\Al Barton - Precious.wav
Peak level 97.7 %
Extraction speed 5.2 X
Range quality 99.8 %
Test CRC 3F9829FF
Copy CRC 3F9829FF
Copy OK
No errors occurred
End of status report
---- CUETools DB Plugin V2.1.6
[CTDB TOCID: webZ_dMjTBnsTxQNFZDpml4Y3Mk-] found
Submit result: already submitted
Track | CTDB Status
1 | (1/1) Accurately ripped
2 | (1/1) Accurately ripped
3 | (1/1) Accurately ripped
4 | (1/1) Accurately ripped
5 | (1/1) Accurately ripped
6 | (1/1) Accurately ripped
7 | (1/1) Accurately ripped
8 | (1/1) Accurately ripped
9 | (1/1) Accurately ripped
10 | (1/1) Accurately ripped
==== Log checksum B92A987DB8B047F06DDD1A5F3F5A0E06A40D4C21EDC64B5DD3416DEF9FE63B46 ====
-

Лог проверки качества

AUDIOCHECKER v2.0 beta (build 457) - by Dester - opdester@freemail.hu
~~~~~~~~~~~~~~~~~~~~~~~~~~~~~~~~~~
Started at: ÷åòâåðã, 18. 04. 2019. - 22:47.57
1 file found
1 -===- C:\Users\Àäìèíèñòðàòîð\Documents\-Nordic Wolf-\Al Barton - 1991 - Precious (FLAC)\Al Barton - Precious.flac
Extracted successfully
Conclusion: this track is CDDA with probability 100%
Tempfile successfully deleted.
Finished at: ÷åòâåðã, 18. 04. 2019. - 22:55.20 (operation time: 0:07.22)
-

Скриншот спектра частот

-
[torrents24.ru].t81442.torrent 
Торрент: Зарегистрирован [ 2019-04-20 15:40 ] · 1F60FA91E29D6F3925B9981737BFC4D48A35F518

Скачать .torrent

Скачать

13 KB

Статус: проверено
Скачан: 0 раз
Размер: 306 MB
terms.php
[Профиль] [ЛС]
Показать сообщения:    
Ответить на тему

Текущее время: 26-Июн 09:31

Часовой пояс: UTC + 3



Вы не можете начинать темы
Вы не можете отвечать на сообщения
Вы не можете редактировать свои сообщения
Вы не можете удалять свои сообщения
Вы не можете голосовать в опросах
Вы не можете прикреплять файлы к сообщениям
Вы можете скачивать файлы

Интересное в сети