(Adult Alternative Pop-Rock) [CD] Bruce Hornsby - Absolute Zero - 2019, FLAC (tracks+.cue), lossless

Ответить на тему
Статистика раздачи
Размер:  391 MB   |    Зарегистрирован:  2 месяца 9 дней   |    Скачан:  0 раз

Полного источника не было: Никогда

 
   
 
 
Автор Сообщение

folk ®

Пол: Не указан

Стаж: 1 год 3 месяца

Сообщений: 136

Создавать темы 16-Апр-2019 15:29

[Цитировать]

Bruce Hornsby / Absolute Zero
Жанр: Adult Alternative Pop-Rock
Носитель: CD
Страна-производитель диска (релиза): USA
Год издания: 2019
Издатель (лейбл): Zappo Productions
Номер по каталогу: ZAPPO001
Страна исполнителя (группы): USA
Аудиокодек: FLAC (*.flac)
Тип рипа: tracks+.cue
Продолжительность: 00:42:02
Источник: собственный рип
Наличие сканов в содержимом раздачи: да

Треклист

01. Absolute Zero (Bruce Hornsby) Bruce Hornsby, feat. Jack DeJohnette 03:11
02. Fractals (Bruce Hornsby) 02:33
03. Cast-Off (Justin Vernon / Bruce Hornsby) Bruce Hornsby, feat. Justin Vernon 05:17
04. Meds (Bruce Hornsby) Bruce Hornsby, feat. Justin Vernon, Blake Mills & Rob Moose 06:35
05. Never in This House (Chip Dematteo / Bruce Hornsby) Bruce Hornsby, feat. yMusic 03:34
06. Voyager One (Chip Dematteo / Bruce Hornsby) Bruce Hornsby, feat. yMusic 03:39
07. Echolocation (Bruce Hornsby) 04:20
08. The Blinding Light of Dreams (Chip Dematteo / Bruce Hornsby) Bruce Hornsby, feat. yMusic 04:15
09. White Noise (Bruce Hornsby) 03:27
10. Take You There [Misty] (Bruce Hornsby / Robert Hunter) Bruce Hornsby, feat. yMusic 05:11

Лог создания рипа

Exact Audio Copy V1.3 from 2. September 2016
EAC extraction logfile from 15. April 2019, 19:47
Bruce Hornsby / Absolute Zero
Used drive : ASUS BW-12D1S-U Adapter: 1 ID: 1
Read mode : Secure
Utilize accurate stream : Yes
Defeat audio cache : Yes
Make use of C2 pointers : No
Read offset correction : 667
Overread into Lead-In and Lead-Out : No
Fill up missing offset samples with silence : Yes
Delete leading and trailing silent blocks : No
Null samples used in CRC calculations : Yes
Used interface : Native Win32 interface for Win NT & 2000
Gap handling : Appended to previous track
Used output format : User Defined Encoder
Selected bitrate : 1024 kBit/s
Quality : High
Add ID3 tag : No
Command line compressor : C:\Program Files (x86)\Exact Audio Copy\FLAC\FLAC.EXE
Additional command line options : -V -8 -T "Genre=%genre%" -T "Artist=%artist%" -T "Title=%title%" -T "Album=%albumtitle%" -T "Date=%year%" -T "Tracknumber=%tracknr%" -T "Comment=%comment%" %source%
TOC of the extracted CD
Track | Start | Length | Start sector | End sector
---------------------------------------------------------
1 | 0:00.00 | 3:11.00 | 0 | 14324
2 | 3:11.00 | 2:33.32 | 14325 | 25831
3 | 5:44.32 | 5:16.64 | 25832 | 49595
4 | 11:01.21 | 6:34.72 | 49596 | 79217
5 | 17:36.18 | 3:33.65 | 79218 | 95257
6 | 21:10.08 | 3:39.33 | 95258 | 111715
7 | 24:49.41 | 4:19.63 | 111716 | 131203
8 | 29:09.29 | 4:14.69 | 131204 | 150322
9 | 33:24.23 | 3:27.17 | 150323 | 165864
10 | 36:51.40 | 5:11.13 | 165865 | 189202
Track 1
Filename E:\Torrents of Autumn\Hornsby, Bruce [2019] Absolute Zero\01. Absolute Zero.wav
Pre-gap length 0:00:02.00
Peak level 99.2 %
Extraction speed 4.2 X
Track quality 100.0 %
Test CRC 042B048A
Copy CRC 042B048A
Track not present in AccurateRip database
Copy OK
Track 2
Filename E:\Torrents of Autumn\Hornsby, Bruce [2019] Absolute Zero\02. Fractals.wav
Peak level 100.0 %
Extraction speed 4.3 X
Track quality 100.0 %
Test CRC C8298B4D
Copy CRC C8298B4D
Track not present in AccurateRip database
Copy OK
Track 3
Filename E:\Torrents of Autumn\Hornsby, Bruce [2019] Absolute Zero\03. Cast-Off.wav
Peak level 100.0 %
Extraction speed 5.2 X
Track quality 100.0 %
Test CRC D2249BDC
Copy CRC D2249BDC
Track not present in AccurateRip database
Copy OK
Track 4
Filename E:\Torrents of Autumn\Hornsby, Bruce [2019] Absolute Zero\04. Meds.wav
Peak level 100.0 %
Extraction speed 5.9 X
Track quality 100.0 %
Test CRC 8AC67C5A
Copy CRC 8AC67C5A
Track not present in AccurateRip database
Copy OK
Track 5
Filename E:\Torrents of Autumn\Hornsby, Bruce [2019] Absolute Zero\05. Never in This House.wav
Peak level 99.7 %
Extraction speed 5.9 X
Track quality 100.0 %
Test CRC 133A590B
Copy CRC 133A590B
Track not present in AccurateRip database
Copy OK
Track 6
Filename E:\Torrents of Autumn\Hornsby, Bruce [2019] Absolute Zero\06. Voyager One.wav
Peak level 99.0 %
Extraction speed 5.5 X
Track quality 99.9 %
Test CRC FFAE3CA1
Copy CRC FFAE3CA1
Track not present in AccurateRip database
Copy OK
Track 7
Filename E:\Torrents of Autumn\Hornsby, Bruce [2019] Absolute Zero\07. Echolocation.wav
Peak level 100.0 %
Extraction speed 6.5 X
Track quality 100.0 %
Test CRC 48A87813
Copy CRC 48A87813
Track not present in AccurateRip database
Copy OK
Track 8
Filename E:\Torrents of Autumn\Hornsby, Bruce [2019] Absolute Zero\08. The Blinding Light of Dreams.wav
Peak level 100.0 %
Extraction speed 6.6 X
Track quality 100.0 %
Test CRC CF1CCCD6
Copy CRC CF1CCCD6
Track not present in AccurateRip database
Copy OK
Track 9
Filename E:\Torrents of Autumn\Hornsby, Bruce [2019] Absolute Zero\09. White Noise.wav
Peak level 99.3 %
Extraction speed 6.9 X
Track quality 100.0 %
Test CRC 6166C2D5
Copy CRC 6166C2D5
Track not present in AccurateRip database
Copy OK
Track 10
Filename E:\Torrents of Autumn\Hornsby, Bruce [2019] Absolute Zero\10. Take You There (Misty).wav
Peak level 99.7 %
Extraction speed 7.5 X
Track quality 100.0 %
Test CRC E37EED8B
Copy CRC E37EED8B
Track not present in AccurateRip database
Copy OK
None of the tracks are present in the AccurateRip database
No errors occurred
End of status report
---- CUETools DB Plugin V2.1.6
[CTDB TOCID: nAZerCZDDTw.tX8FZtjylWL8d_M-] found
Submit result: nAZerCZDDTw.tX8FZtjylWL8d_M- has been confirmed
Track | CTDB Status
1 | (9/9) Accurately ripped
2 | (9/9) Accurately ripped
3 | (9/9) Accurately ripped
4 | (9/9) Accurately ripped
5 | (9/9) Accurately ripped
6 | (9/9) Accurately ripped
7 | (9/9) Accurately ripped
8 | (9/9) Accurately ripped
9 | (9/9) Accurately ripped
10 | (9/9) Accurately ripped
==== Log checksum 362D41A7513F45FB6D6D31C3DB369F4983A572F32F43D3E7E6E84932F187F000 ====

Содержание индексной карты (.CUE)

REM GENRE Alternative
REM DATE 2019
REM DISCID 7209DA0A
REM COMMENT "ExactAudioCopy v1.3"
PERFORMER "Bruce Hornsby"
TITLE "Absolute Zero"
REM COMPOSER "Bruce Hornsby"
FILE "01. Absolute Zero.wav" WAVE
TRACK 01 AUDIO
TITLE "Absolute Zero"
PERFORMER "Bruce Hornsby Feat. Jack DeJohnette"
REM COMPOSER "Bruce Hornsby"
INDEX 01 00:00:00
FILE "02. Fractals.wav" WAVE
TRACK 02 AUDIO
TITLE "Fractals"
PERFORMER "Bruce Hornsby"
REM COMPOSER "Bruce Hornsby"
INDEX 01 00:00:00
FILE "03. Cast-Off.wav" WAVE
TRACK 03 AUDIO
TITLE "Cast-Off"
PERFORMER "Bruce Hornsby Feat. Justin Vernon"
REM COMPOSER "Justin Vernon / Bruce Hornsby"
INDEX 01 00:00:00
FILE "04. Meds.wav" WAVE
TRACK 04 AUDIO
TITLE "Meds"
PERFORMER "Bruce Hornsby Feat. Justin Vernon, Blake Mills & Rob Moose"
REM COMPOSER "Bruce Hornsby"
INDEX 01 00:00:00
FILE "05. Never in This House.wav" WAVE
TRACK 05 AUDIO
TITLE "Never in This House"
PERFORMER "Bruce Hornsby Feat. yMusic"
REM COMPOSER "Chip Dematteo / Bruce Hornsby"
INDEX 01 00:00:00
FILE "06. Voyager One.wav" WAVE
TRACK 06 AUDIO
TITLE "Voyager One"
PERFORMER "Bruce Hornsby Feat. yMusic"
REM COMPOSER "Chip Dematteo / Bruce Hornsby"
INDEX 01 00:00:00
FILE "07. Echolocation.wav" WAVE
TRACK 07 AUDIO
TITLE "Echolocation"
PERFORMER "Bruce Hornsby"
REM COMPOSER "Bruce Hornsby"
INDEX 01 00:00:00
FILE "08. The Blinding Light of Dreams.wav" WAVE
TRACK 08 AUDIO
TITLE "The Blinding Light of Dreams"
PERFORMER "Bruce Hornsby Feat. yMusic"
REM COMPOSER "Chip Dematteo / Bruce Hornsby"
INDEX 01 00:00:00
FILE "09. White Noise.wav" WAVE
TRACK 09 AUDIO
TITLE "White Noise"
PERFORMER "Bruce Hornsby"
REM COMPOSER "Bruce Hornsby"
INDEX 01 00:00:00
FILE "10. Take You There (Misty).wav" WAVE
TRACK 10 AUDIO
TITLE "Take You There (Misty)"
PERFORMER "Bruce Hornsby Feat. yMusic"
REM COMPOSER "Bruce Hornsby / Robert Hunter"
INDEX 01 00:00:00

Об исполнителе (группе)

Possessing a breezy, nonchalant style that belies his technical gifts, pianist Bruce Hornsby writes powerful songs from the heart that touch on several distinctly American traditions: pop, jazz, bluegrass, and ’60s soul. He worked for a while as a studio player and songwriter, and had his first hit in 1986 with the stirring and philosophical “The Way It Is.” After that, he continued to release albums that honored his own muse rather than the marketplace, and put together various backing bands to suit the mood and style of the genres he worked in. Hornsby has also maintained a close musical relationship with the remaining members of the Grateful Dead, having toured as a temporary member in the early ’90s and collaborated on offshoot recordings and live shows.
Bruce Hornsby was born in Williamsburg, Virginia, and grew up in that combination college town and tourist center, later attending the University of Miami and the Berklee School of Music. He then spent years playing in bars and sending demo tapes to record companies. In 1980, he and his brother (and songwriting partner) John Hornsby moved to Los Angeles, where they spent three years writing for 20th Century Fox. There Bruce Hornsby met Huey Lewis, who would eventually produce him and record his material. Hornsby finally signed his band, the Range, to RCA in 1985. Their debut album, The Way It Is, was released in April 1986. It eventually produced three Top 20 hits, the biggest of which was the socially conscious “The Way It Is,” which featured Hornsby’s characteristically melodic right-hand piano runs. The album stayed in the charts for almost a year-and-a-half and sold two million copies. Hornsby & the Range won the Best New Artist Grammy Award for 1986.
Hornsby’s second album, Scenes from the Southside, was not as successful as his debut, though it sold a million copies and produced the Top Ten single “The Valley Road.” Hornsby also began to make his mark as a songwriter for others: Huey Lewis had a hit with his “Jacob’s Ladder,”as did Don Henley with “The End of the Innocence.” Hornsby’s third album, A Night on the Town (1990), found him trying to break out of his signature sound into other areas. It was less successful than its predecessors, but, along with the pianist’s extensive session work, it signaled his determination to tackle new musical challenges. Hornsby worked extensively as a producer and sideman in the early ’90s, notably doing temporary duty in the Grateful Dead after their keyboardist, Brent Mydland, died in July 1990, and producing a comeback album for Leon Russell, an idol of Hornsby’s. He also became the father of twin sons.
He finally turned in his fourth album, Harbor Lights, for release in 1993. This solo album, which did not feature his backup band, the Range, went gold, and Hornsby toured the U.S. and Canada through the end of the year. He followed it with a similar effort, Hot House, in July 1995, returning three years later with the double album Spirit Trail. Here Come the Noise Makers was issued in fall 2000. Since that time, Hornsby has released a handful of albums including Big Swing Face in 2002, Halcyon Days in 2004, the jazz-oriented Camp Meeting in 2007, and Levitate in 2009. Hornsby’s most impressive playing has arguably been in live settings, though, as illustrated by the two-disc set Bride of the Noisemakers (released in 2011 and featuring concert performances from Hornsby and his band the Noisemakers recorded between 2007 and 2009), which put the band’s impressive ability to jam in styles ranging from rock to jazz and bluegrass on full display. A live set with Ricky Skaggs, Cluck Ol’ Hen, appeared at the end of the summer in 2013. Another live album, a double-disc set called Solo Concerts, appeared on Vanguard Records in August 2014. In the summer of 2015, Hornsby reprised his role as keyboardist for the Grateful Dead during the group’s 50th anniversary reunion shows in California and Chicago. A year later, he and the Noisemakers returned with their fifth album, Rehab Reunion.
Hornsby delivered Absolute Zero, his first solo album since 1998’s Spirit Trail, in April 2019. (William Ruhlmann, AllMusic)

Об альбоме (сборнике)

The Noisemakers, Bruce Hornsby’s regular backing band since 2002, aren’t credited on 2019’s Absolute Zero, which should be an indication that the album is a bit of a departure from the other records he’s made during the 21st century. While the Noisemakers haven’t avoided adventure, Absolute Zero feels as if it were made without any regard to boundaries, either in terms of style or approach. Such fearlessness is evident from the outset, when the record kicks off with a dexterous rhythm suitable for a vintage post-bop session, but it’s too reductive to call Absolute Zero an odyssey into straight jazz. That much is clear by “Cast Off,” where Hornsby acolyte Justin Vernon lends not just harmonies but a digital cut & paste aesthetic that feels bracingly modern. Jazz and electronica aren’t the only styles on Absolute Zero, though. Hornsby doesn’t neglect folky Americana (“Echolocation”) or melodic ballads (“Never in This House”), two of his trademarks since the Range, but the startling thing about Absolute Zero isn’t that he’s chosen to venture to the outer limits of his tastes, but that he’s found the common ground between roots music, jazz, avant-garde, pop, and experimentation. It’s this blend—which is seamless, but quite dense, demanding the listener’s attention—that makes Absolute Zero seem to have depths that aren’t easily fathomed. (Stephen Thomas Erlewine, AllMusic)

Состав

Please see the enclosed booklet for the track-by-track performers.
Produced by Bruce Hornsby
[torrents24.ru].t81054.torrent 
Торрент: Зарегистрирован [ 2019-04-16 15:30 ] · 92AD4548DFD590D8CF255CFB1C44E0C6810F0A53

Скачать .torrent

Скачать

17 KB

Статус: проверено
Скачан: 0 раз
Размер: 391 MB
terms.php
[Профиль] [ЛС]
Показать сообщения:    
Ответить на тему

Текущее время: 26-Июн 09:01

Часовой пояс: UTC + 3



Вы не можете начинать темы
Вы не можете отвечать на сообщения
Вы не можете редактировать свои сообщения
Вы не можете удалять свои сообщения
Вы не можете голосовать в опросах
Вы не можете прикреплять файлы к сообщениям
Вы можете скачивать файлы

Интересное в сети