Остров на троих / Секс ради выживания / Трое: Остаться в живых / Three / Survival Island (Стюарт Рэффил / Stewart Raffill) [2005, США, Великобритания, Люксембург, триллер, драма, приключения, WEB-DLRip-AVC] Dub (UMP/GFS) + 2x DVO (Superbit, РЕН ТВ)

Ответить на тему
Статистика раздачи
Размер:  3,03 GB   |    Зарегистрирован:  2 месяца 16 дней   |    Скачан:  0 раз

Полного источника не было: Никогда

 
   
 
 
Автор Сообщение

Ведьмочка ®

Пол: Не указан

Стаж: 1 год 4 месяца

Сообщений: 117

Создавать темы 09-Апр-2019 15:44

[Цитировать]

Остров на троих / Секс ради выживания / Трое: Остаться в живых / Three / Survival Island
Страна: США, Великобритания, Люксембург
Жанр: триллер, драма, приключения
Год выпуска: 2005
Продолжительность: 01:35:45
Перевод 1: Профессиональный (дублированный) UMP/GFS
Перевод 2: Профессиональный (двухголосый закадровый) Superbit
Перевод 3: Профессиональный (двухголосый закадровый) РЕН ТВ
Субтитры: русские, украинские, английские
Оригинальная аудиодорожка: английский отдельным файлом
Режиссер: Стюарт Рэффил / Stewart Raffill
В ролях: Билли Зейн, Келли Брук, Хуан Пабло Ди Паке, Тодд Коллинз, Гэбриэлль Джордан, Гэри Брокетт, Изабель Константини, Рой Ривера, Мария Виктория Ди Паке, Саммер Дэвис...
Описание: Молодожены Джек и Дженнифер решают провести медовый месяц на роскошной яхте. Спустя несколько дней, судно терпит крушение у берегов незнакомого острова. Спастись удается лишь хозяевам яхты и матросу по имени Мануэль. Несчастные оказываются в полной изоляции от большой земли.
Приспособленный к жизни в экстремальных условиях, Мануэль берет на себя заботу об изнеженных богачах, добывая для них пищу и воду. Впечатлительной Дженнифер не под силу устоять перед обаянием красавца Мануэля, и довольно скоро между ними вспыхивает непреодолимая страсть.
Ревность превращает Джека в монстра, ярость и жестокость которого не знает границ. Мужчины начинают настоящую войну за обладание красавицей, и кто знает, кому суждено выбраться с затерянного острова…
Доп. информация: Дубляж с DVD9. Перевод Superbit с DVD. Перевод РЕН ТВ с раздачи slavikevro. Синхронизация звука - Dreven.
Сэмпл: http://sendfile.su/1487500
Качество видео: WEB-DLRip-AVC Исходник WEB-DL 1080p
Формат видео: MKV
Видео: 1104x624 (16:9), 23.976 fps, AVC, ~3000 Kbps, 0.182 bits/pixel
Аудио 1: Russian, 48.0 KHz, AC3, 6 ch, 448 Kbps - UMP/GFS
Аудио 2: Russian, 48.0 KHz, AC3, 6 ch, 448 Kbps - Superbit
Аудио 3: English, 48.0 KHz, AC3, 6 ch, 448 Kbps
Аудио 4: Russian, 48.0 KHz, AC3, 2 ch, 192 Kbps - РЕН ТВ отдельным файлом

MediaInfo

General
Unique ID : 169075110854071480813284258070851235196 (0x7F32AE8FFA9DE7D70C7277FCB5342D7C)
Complete name : C:\Survival Island\Survival Island.mkv
Format : Matroska
Format version : Version 4 / Version 2
File size : 2.91 GiB
Duration : 1 h 35 min
Overall bit rate : 4 344 kb/s
Encoded date : UTC 2019-04-08 17:31:47
Writing application : mkvmerge v32.0.0 ('Astral Progressions') 64-bit
Writing library : libebml v1.3.7 + libmatroska v1.5.0
Video
ID : 1
Format : AVC
Format/Info : Advanced Video Codec
Format profile : High@L4.1
Format settings : CABAC / 10 Ref Frames
Format settings, CABAC : Yes
Format settings, ReFrames : 10 frames
Codec ID : V_MPEG4/ISO/AVC
Duration : 1 h 35 min
Bit rate : 3 000 kb/s
Width : 1 104 pixels
Height : 624 pixels
Display aspect ratio : 16:9
Frame rate mode : Constant
Frame rate : 23.976 (24000/1001) FPS
Color space : YUV
Chroma subsampling : 4:2:0
Bit depth : 8 bits
Scan type : Progressive
Bits/(Pixel*Frame) : 0.182
Stream size : 2.00 GiB (69%)
Writing library : x264 core 157 r2935 545de2f
Encoding settings : cabac=1 / ref=10 / deblock=1:-1:-1 / analyse=0x3:0x113 / me=umh / subme=10 / psy=1 / psy_rd=1.00:0.20 / mixed_ref=1 / me_range=32 / chroma_me=1 / trellis=2 / 8x8dct=1 / cqm=0 / deadzone=21,11 / fast_pskip=0 / chroma_qp_offset=-3 / threads=6 / lookahead_threads=1 / sliced_threads=0 / nr=0 / decimate=0 / interlaced=0 / bluray_compat=0 / constrained_intra=0 / bframes=10 / b_pyramid=2 / b_adapt=2 / b_bias=0 / direct=3 / weightb=1 / open_gop=0 / weightp=2 / keyint=250 / keyint_min=23 / scenecut=40 / intra_refresh=0 / rc_lookahead=40 / rc=2pass / mbtree=0 / bitrate=3000 / ratetol=1.0 / qcomp=0.60 / qpmin=0 / qpmax=69 / qpstep=4 / cplxblur=20.0 / qblur=0.5 / vbv_maxrate=50000 / vbv_bufsize=62500 / nal_hrd=none / filler=0 / ip_ratio=1.40 / pb_ratio=1.30 / aq=1:1.00
Language : English
Default : Yes
Forced : No
Audio #1
ID : 2
Format : AC-3
Format/Info : Audio Coding 3
Commercial name : Dolby Digital
Codec ID : A_AC3
Duration : 1 h 35 min
Bit rate mode : Constant
Bit rate : 448 kb/s
Channel(s) : 6 channels
Channel layout : L R C LFE Ls Rs
Sampling rate : 48.0 kHz
Frame rate : 31.250 FPS (1536 SPF)
Bit depth : 16 bits
Compression mode : Lossy
Stream size : 307 MiB (10%)
Title : UMP/GFS
Language : Russian
Service kind : Complete Main
Default : Yes
Forced : No
Audio #2
ID : 3
Format : AC-3
Format/Info : Audio Coding 3
Commercial name : Dolby Digital
Codec ID : A_AC3
Duration : 1 h 35 min
Bit rate mode : Constant
Bit rate : 448 kb/s
Channel(s) : 6 channels
Channel layout : L R C LFE Ls Rs
Sampling rate : 48.0 kHz
Frame rate : 31.250 FPS (1536 SPF)
Bit depth : 16 bits
Compression mode : Lossy
Stream size : 307 MiB (10%)
Title : Superbit
Language : Russian
Service kind : Complete Main
Default : No
Forced : No
Audio #3
ID : 4
Format : AC-3
Format/Info : Audio Coding 3
Commercial name : Dolby Digital
Codec ID : A_AC3
Duration : 1 h 35 min
Bit rate mode : Constant
Bit rate : 448 kb/s
Channel(s) : 6 channels
Channel layout : L R C LFE Ls Rs
Sampling rate : 48.0 kHz
Frame rate : 31.250 FPS (1536 SPF)
Bit depth : 16 bits
Compression mode : Lossy
Stream size : 307 MiB (10%)
Language : English
Service kind : Complete Main
Default : No
Forced : No
Text #1
ID : 5
Format : UTF-8
Codec ID : S_TEXT/UTF8
Codec ID/Info : UTF-8 Plain Text
Duration : 1 h 32 min
Bit rate : 63 b/s
Count of elements : 992
Stream size : 42.7 KiB (0%)
Language : Russian
Default : No
Forced : No
Text #2
ID : 6
Format : UTF-8
Codec ID : S_TEXT/UTF8
Codec ID/Info : UTF-8 Plain Text
Duration : 1 h 32 min
Bit rate : 63 b/s
Count of elements : 992
Stream size : 42.6 KiB (0%)
Language : Ukrainian
Default : No
Forced : No
Text #3
ID : 7
Format : UTF-8
Codec ID : S_TEXT/UTF8
Codec ID/Info : UTF-8 Plain Text
Duration : 1 h 31 min
Bit rate : 43 b/s
Count of elements : 1167
Stream size : 28.8 KiB (0%)
Language : English
Default : No
Forced : No

Скриншоты

[torrents24.ru].t80271.torrent 
Торрент: Зарегистрирован [ 2019-04-09 15:45 ] · 77FDB1041C36AB7DAA4E18A6C5E7E7699BD48903

Скачать .torrent

Скачать

16 KB

Статус: проверено
Скачан: 0 раз
Размер: 3,03 GB
terms.php
[Профиль] [ЛС]
Показать сообщения:    
Ответить на тему

Текущее время: 26-Июн 09:11

Часовой пояс: UTC + 3



Вы не можете начинать темы
Вы не можете отвечать на сообщения
Вы не можете редактировать свои сообщения
Вы не можете удалять свои сообщения
Вы не можете голосовать в опросах
Вы не можете прикреплять файлы к сообщениям
Вы можете скачивать файлы

Интересное в сети