Beyond The Black - Heart Of The Hurricane [2018, Symphonic Metal, Power Metal, DVDRip-AVC]

Ответить на тему
Статистика раздачи
Размер:  712 MB   |    Зарегистрирован:  10 месяцев 16 дней   |    Скачан:  1 раз

Полного источника не было: 10 месяцев 16 дней

Личеров:  4  [  0 KB/s  ]  
 
   
 
 
Автор Сообщение

Акробат ®

Пол: Не указан

Стаж: 1 год 9 месяцев

Сообщений: 1

Создавать темы 21-Янв-2019 16:15

[Цитировать]

Heart Of The Hurricane- --Страна:
Жанр: Symphonic Metal, Power Metal
Продолжительность: 00:42:27
Год выпуска: 2018
Описание: Recorded live at Loud Park Festival, Japan, 2017.-Треклист:
1 Intro
2 Lost In Forever
3 Heaven In Hell
4 Songs Of Love And Death
5 Love Me Forever
6 Shine And Shade
7 In The Shadows
8 Hallelujah
9 Running To The Edge-Источник: собственный рип Beyond The Black - Heart Of The Hurricane (Bonus DVD)--Качество: DVDRip-AVC
Контейнер: MKV
Видео кодек: H.264
Аудио кодек: AC3
Видео: MPEG4 AVC / 712*472 (1,85:1) / 23.97 fps / 2149 kbps
Аудио: AC3 / 192 kbps / 48.0 khz / 2 ch

MI

Общее
Уникальный идентификатор : 190624765071753284423784755302250183618 (0x8F68FE8BB675E056B7E3F042DAF5FBC2)
Полное имя : D:\Video\Beyond The Black - Heart Of The Hurricane.mkv
Формат : Matroska
Версия формата : Version 4
Размер файла : 712 Мбайт
Продолжительность : 42 м. 27 с.
Общий поток : 2343 Кбит/сек
Дата кодирования : UTC 2019-01-18 14:23:36
Программа кодирования : mkvmerge v7.1.0 ('Good Love') 64bit built on Jul 27 2014 13:06:55
Библиотека кодирования : libebml v1.3.0 + libmatroska v1.4.1
Видео
Идентификатор : 1
Формат : AVC
Формат/Информация : Advanced Video Codec
Профиль формата : High@L4.1
Настройки формата : CABAC / 16 Ref Frames
Параметр CABAC формата : Да
Параметр RefFrames формата : 16 кадров
Идентификатор кодека : V_MPEG4/ISO/AVC
Продолжительность : 42 м. 27 с.
Битрейт : 2149 Кбит/сек
Ширина : 712 пикселей
Высота : 472 пикселя
Соотношение сторон : 1,85:1
Соотношение сторон в оригинале : 1,85:1
Режим частоты кадров : Постоянный
Частота кадров : 23,976 (24000/1001) кадра/сек
Цветовое пространство : YUV
Субдискретизация насыщенности : 4:2:0
Битовая глубина : 8 бит
Тип развёртки : Прогрессивная
Бит/(Пиксели*Кадры) : 0.267
Размер потока : 653 Мбайт (92%)
Библиотека кодирования : x264 core 152 r2851 ba24899
Настройки программы : cabac=1 / ref=16 / deblock=1:-2:-2 / analyse=0x3:0x133 / me=umh / subme=10 / psy=1 / psy_rd=1.00:0.15 / mixed_ref=1 / me_range=24 / chroma_me=1 / trellis=2 / 8x8dct=1 / cqm=0 / deadzone=21,11 / fast_pskip=1 / chroma_qp_offset=-3 / threads=6 / lookahead_threads=1 / sliced_threads=0 / nr=0 / decimate=1 / interlaced=0 / bluray_compat=0 / constrained_intra=0 / bframes=8 / b_pyramid=2 / b_adapt=2 / b_bias=0 / direct=3 / weightb=1 / open_gop=0 / weightp=2 / keyint=240 / keyint_min=23 / scenecut=40 / intra_refresh=0 / rc_lookahead=60 / rc=2pass / mbtree=1 / bitrate=2149 / ratetol=1.0 / qcomp=0.60 / qpmin=0 / qpmax=69 / qpstep=4 / cplxblur=20.0 / qblur=0.5 / vbv_maxrate=50000 / vbv_bufsize=50000 / nal_hrd=none / filler=0 / ip_ratio=1.40 / aq=1:1.00
Default : Да
Forced : Нет
Аудио
Идентификатор : 2
Формат : AC-3
Формат/Информация : Audio Coding 3
Коммерческое название : Dolby Digital
Идентификатор кодека : A_AC3
Продолжительность : 42 м. 17 с.
Вид битрейта : Постоянный
Битрейт : 192 Кбит/сек
Каналы : 2 канала
Channel layout : L R
Частота : 48,0 КГц
Частота кадров : 31,250 кадров/сек (1536 SPF)
Битовая глубина : 16 бит
Метод сжатия : С потерями
Размер потока : 58,1 Мбайт (8%)
ServiceKind/String : Complete Main
Default : Да
Forced : Нет
Меню
00:00:00.000 : en:Intro
00:01:06.601 : en:Lost In Forever
00:05:54.135 : en:Heaven In Hell
00:11:11.168 : en:Songs Of Love And Death
00:16:09.435 : en:Love Me Forever
00:19:42.902 : en:Shine And Shade
00:26:00.536 : en:In The Shadwos
00:30:58.437 : en:Hallelujah
00:36:09.004 : en:Running To The Edge
Beyond The Black - Lost In Forever/Live Wacken 2015 [2015, Symphonic Metal, Power Metal, DVDRip-AVC]
[torrents24.ru].t71806.torrent 
Торрент: Зарегистрирован [ 2019-01-21 16:20 ] · 62860864BD9E5105828214435208E20C245B4C58

Скачать .torrent

Скачать

14 KB

Статус: проверено
Скачан: 1 раз
Размер: 712 MB
terms.php
[Профиль] [ЛС]
Показать сообщения:    
Ответить на тему

Текущее время: 07-Дек 00:01

Часовой пояс: UTC + 3



Вы не можете начинать темы
Вы не можете отвечать на сообщения
Вы не можете редактировать свои сообщения
Вы не можете удалять свои сообщения
Вы не можете голосовать в опросах
Вы не можете прикреплять файлы к сообщениям
Вы можете скачивать файлы

Интересное в сети