Paul Simon • Saturday Night Live [2018, Folk Rock, HDTV, 1080i]

Ответить на тему
Статистика раздачи
Размер:  876 MB   |    Зарегистрирован:  8 месяцев 1 день   |    Скачан:  0 раз

Полного источника не было: Никогда

Личеров:  6  [  0 KB/s  ]  
 
   
 
 
Автор Сообщение

craft ®

Пол: Не указан

Стаж: 1 год 7 месяцев

Сообщений: 13

Создавать темы 21-Янв-2019 16:18

[Цитировать]


Paul Simon


Жанр: Folk Rock
Продолжительность: 00:09:25
Год выпуска: 2018
Качество: HDTV
Разрешение видео/развертка: 1080i
Контейнер: TS
Видео кодек: MPEG2
Аудио кодек: AC3
Видео: MPEG2 Video 1920x1080 29.97fps 12.0 Mb/s
Аудио: Dolby AC3 48000Hz 6ch 384kbps

Треклист

Can't Run But
Bridge Over Troubled Water

Отчёт MediaInfo / BDInfo

General
ID : 1 (0x1)
Complete name : J:\Paul Simon - Saturday Night Live 2018.ts
Format : MPEG-TS
File size : 876 MiB
Duration : 9 min 24 s
Overall bit rate mode : Variable
Overall bit rate : 13.0 Mb/s
Maximum Overall bit rate : 35.5 Mb/s
Law rating : N/A
Video
ID : 4113 (0x1011)
Menu ID : 1 (0x1)
Format : MPEG Video
Format version : Version 2
Format profile : Main@High
Format settings : CustomMatrix / BVOP
Format settings, BVOP : Yes
Format settings, Matrix : Custom
Format settings, GOP : Variable
Format settings, picture struc : Frame
Codec ID : 2
Duration : 9 min 24 s
Bit rate mode : Variable
Bit rate : 12.0 Mb/s
Maximum bit rate : 24.0 Mb/s
Width : 1 920 pixels
Height : 1 080 pixels
Display aspect ratio : 16:9
Active Format Description : Full frame 16:9 image
Frame rate : 29.970 (30000/1001) FPS
Color space : YUV
Chroma subsampling : 4:2:0
Bit depth : 8 bits
Scan type : Interlaced
Scan order : Top Field First
Compression mode : Lossy
Bits/(Pixel*Frame) : 0.193
Time code of first frame : 00:00:00;00
Time code source : Group of pictures header
GOP, Open/Closed : Open
GOP, Open/Closed of first fram : Closed
Stream size : 807 MiB (92%)
Audio
ID : 4352 (0x1100)
Menu ID : 1 (0x1)
Format : AC-3
Format/Info : Audio Coding 3
Commercial name : Dolby Digital
Codec ID : 129
Duration : 9 min 24 s
Bit rate mode : Constant
Bit rate : 384 kb/s
Channel(s) : 6 channels
Channel layout : L R C LFE Ls Rs
Sampling rate : 48.0 kHz
Frame rate : 31.250 FPS (1536 SPF)
Bit depth : 16 bits
Compression mode : Lossy
Delay relative to video : 20 ms
Stream size : 25.9 MiB (3%)
Language : English
Service kind : Complete Main

Скриншоты

[torrents24.ru].t71645.torrent 
Торрент: Зарегистрирован [ 2019-01-21 16:20 ] · 6916FB974D64A16EDEBE8898C1DD57BEBBFE41C2

Скачать .torrent

Скачать

18 KB

Статус: проверено
Скачан: 0 раз
Размер: 876 MB
terms.php
[Профиль] [ЛС]
Показать сообщения:    
Ответить на тему

Текущее время: 23-Сен 06:38

Часовой пояс: UTC + 3



Вы не можете начинать темы
Вы не можете отвечать на сообщения
Вы не можете редактировать свои сообщения
Вы не можете удалять свои сообщения
Вы не можете голосовать в опросах
Вы не можете прикреплять файлы к сообщениям
Вы можете скачивать файлы

Интересное в сети