The William Parker Organ Quartet (Cooper-Moore, James Brandon Lewis, Hamid Drake) - Banlieues Bleues 2017 [2017, Avant-Garde Jazz, HDTV 1080i]

Ответить на тему
Статистика раздачи
Размер:  2,21 GB   |    Зарегистрирован:  5 месяцев 4 дня   |    Скачан:  0 раз

Полного источника не было: Никогда

Личеров:  6  [  0 KB/s  ]  
 
   
 
 
Автор Сообщение

Поля ®

Пол: Не указан

Стаж: 1 год 4 месяца

Сообщений: 72

Создавать темы 21-Янв-2019 16:19

[Цитировать]

The William Parker Organ Quartet
Banlieues bleues 2017

-
Жанр: Avant-Garde Jazz
Продолжительность: 00:58:50
Год выпуска: 2017
Musicians:
William Parker - contrebasse
Cooper Moore - claviers
James Brandon Lewis - saxophone ténor
Hamid Drake - batterie, percussions
Track List:
... исполняется непонятное количество композиций ...
... информация об их названиях в самом релизе – не указана ...
Доп. информация:
en concert la Dynamo de Banlieues Bleues à Pantin le 28 mars 2017
Dans le cadre du 34ème Festival Banlieues Bleues Jazz en Seine Saint-Denis

William Parker Official Site
Cooper-Moore Official Site
James Brandon Lewis Official Site
Hamid Drake drummerworld.com
Огромная Благодарность - ssegaster - за предоставленный материал ...
Спасибо большое !!! Качество: HDTV
Разрешение видео/развертка: 1080i
Контейнер: TS
Видео кодек: H.264
Аудио кодек: MP2
Видео: 4 855 Kbps, 1920*1080 (16:9), at 25.000 fps, AVC (Component) (High@L4.0) (CABAC / 4 Ref Frames)
Аудио: Russian, 256 Kbps, 48.0 KHz, 2 channels, MPEG Audio (Version 1) (Layer 2)

Отчёт MediaInfo

General
ID : 1 (0x1)
Complete name : C:\rutracker.org_mezzo live HD\mezzo live HD_The William Parker Organ Quartet - Banlieues bleues 2017.ts
Format : MPEG-TS
File size : 2.21 GiB
Duration : 58mn 50s
Overall bit rate mode : Variable
Overall bit rate : 5 380 Kbps
Video
ID : 203 (0xCB)
Menu ID : 20103 (0x4E87)
Format : AVC
Format/Info : Advanced Video Codec
Format profile : High@L4.0
Format settings, CABAC : Yes
Format settings, ReFrames : 4 frames
Codec ID : 27
Duration : 58mn 50s
Bit rate : 4 855 Kbps
Width : 1 920 pixels
Height : 1 080 pixels
Display aspect ratio : 16:9
Frame rate : 25.000 fps
Standard : Component
Color space : YUV
Chroma subsampling : 4:2:0
Bit depth : 8 bits
Scan type : Interlaced
Scan order : Top Field First
Bits/(Pixel*Frame) : 0.094
Stream size : 2.00 GiB (90%)
Color primaries : BT.709
Transfer characteristics : BT.709
Matrix coefficients : BT.709
Audio
ID : 303 (0x12F)
Menu ID : 20103 (0x4E87)
Format : MPEG Audio
Format version : Version 1
Format profile : Layer 2
Codec ID : 3
Duration : 58mn 50s
Bit rate mode : Constant
Bit rate : 256 Kbps
Channel(s) : 2 channels
Sampling rate : 48.0 KHz
Compression mode : Lossy
Stream size : 108 MiB (5%)
Language : Russian
[torrents24.ru].t71616.torrent 
Торрент: Зарегистрирован [ 2019-01-21 16:20 ] · 9049B177729D821F17210F207E3164DE87C9F760

Скачать .torrent

Скачать

12 KB

Статус: проверено
Скачан: 0 раз
Размер: 2,21 GB
terms.php
[Профиль] [ЛС]
Показать сообщения:    
Ответить на тему

Текущее время: 26-Июн 09:11

Часовой пояс: UTC + 3



Вы не можете начинать темы
Вы не можете отвечать на сообщения
Вы не можете редактировать свои сообщения
Вы не можете удалять свои сообщения
Вы не можете голосовать в опросах
Вы не можете прикреплять файлы к сообщениям
Вы можете скачивать файлы

Интересное в сети