VA • Christmas in Rockefeller Center [2018, Jazz, Soul, Pop Show, HDTV, 1080i]

Ответить на тему
Статистика раздачи
Размер:  14,94 GB   |    Зарегистрирован:  10 месяцев 16 дней   |    Скачан:  0 раз

Полного источника не было: 8 месяцев 27 дней

Личеров:  6  [  0 KB/s  ]  
 
   
 
 
Автор Сообщение

Поля ®

Пол: Не указан

Стаж: 1 год 9 месяцев

Сообщений: 5

Создавать темы 21-Янв-2019 16:19

[Цитировать]


Christmas in Rockefeller Center
2018


Жанр: Jazz, Soul, Pop Show
Продолжительность: 02:09:15
Год выпуска: 2018
Качество: HDTV
Разрешение видео/развертка: 1080i
Контейнер: MKV
Видео кодек: H.264
Аудио кодек: AC3
Видео: MPEG4 Video (H264) 1920x1080 29.97fps 16.1 Mb/s
Аудио: Dolby AC3 48000Hz 6ch 448kbps

Треклист

Название композиций в программе не указаныHosts:
Savannah Guthrie
Hoda Kotb
Al Roker
Craig Melvin
Diana Ross
Tony Bennett
John Legend
Diana Krall
Brett Eldredge
Darci Lynne Farmer
Martina McBride
Pentatonix
Kellie Pickler
Howie Mandel

Отчёт MediaInfo / BDInfo

General
Unique ID : 182997910485245897840701165493262434472 (0x89AC1D951A65D3E36219D6EB866B40A8)
Complete name : E:\VA - Christmas in Rockefeller Center 2018 (AC3).mkv
Format : Matroska
Format version : Version 4
File size : 14.9 GiB
Duration : 2 h 9 min
Overall bit rate : 16.6 Mb/s
Encoded date : UTC 2018-12-11 09:50:51
Writing application : mkvmerge v29.0.0 ('Like It Or Not') 64-bit
Writing library : libebml v1.3.6 + libmatroska v1.4.9 / Lavf56.25.101
Video
ID : 1
Format : AVC
Format/Info : Advanced Video Codec
Format profile : High@L4.1
Format settings : CABAC / 4 Ref Frames
Format settings, CABAC : Yes
Format settings, ReFrames : 4 frames
Codec ID : V_MPEG4/ISO/AVC
Duration : 2 h 9 min
Bit rate : 16.1 Mb/s
Width : 1 920 pixels
Height : 1 080 pixels
Display aspect ratio : 16:9
Frame rate mode : Variable
Frame rate : 29.970 FPS
Color space : YUV
Chroma subsampling : 4:2:0
Bit depth : 8 bits
Scan type : Interlaced
Scan type, store method : Separated fields
Scan order : Top Field First
Bits/(Pixel*Frame) : 0.259
Stream size : 14.5 GiB (97%)
Default : Yes
Forced : No
Color range : Limited
Color primaries : BT.709
Transfer characteristics : BT.709
Matrix coefficients : BT.709
Audio
ID : 3
Format : AC-3
Format/Info : Audio Coding 3
Commercial name : Dolby Digital
Codec ID : A_AC3
Duration : 2 h 9 min
Bit rate mode : Constant
Bit rate : 448 kb/s
Channel(s) : 6 channels
Channel layout : L R C LFE Ls Rs
Sampling rate : 48.0 kHz
Frame rate : 31.250 FPS (1536 SPF)
Bit depth : 16 bits
Compression mode : Lossy
Delay relative to video : -133 ms
Stream size : 414 MiB (3%)
Service kind : Complete Main
Default : Yes
Forced : No
Text
ID : 2
Format : UTF-8
Codec ID : S_TEXT/UTF8
Codec ID/Info : UTF-8 Plain Text
Duration : 2 h 8 min
Bit rate : 132 b/s
Count of elements : 2853
Stream size : 125 KiB (0%)
Language : English
Default : Yes
Forced : No
Menu
00:00:00.000 : :Chapter 1
00:07:45.398 : :Chapter 2
00:12:44.230 : :Chapter 3
00:22:49.434 : :Chapter 4
00:26:46.471 : :Chapter 5
00:36:32.256 : :Chapter 6
00:45:32.062 : :Chapter 7
00:53:57.033 : :Chapter 8
01:02:16.933 : :Chapter 9
01:13:25.534 : :Chapter 10
01:21:02.791 : :Chapter 11
01:26:14.435 : :Chapter 12
01:33:27.935 : :Chapter 13
01:41:00.654 : :Chapter 14
01:46:55.142 : :Chapter 15
01:54:14.180 : :Chapter 16
01:58:27.633 : :Chapter 17
[torrents24.ru].t71601.torrent 
Торрент: Зарегистрирован [ 2019-01-21 16:20 ] · 4E9A49E4095D620DF0F4B4CE5F2748CA43471A29

Скачать .torrent

Скачать

38 KB

Статус: проверено
Скачан: 0 раз
Размер: 14,94 GB
terms.php
[Профиль] [ЛС]
Показать сообщения:    
Ответить на тему

Текущее время: 06-Дек 23:08

Часовой пояс: UTC + 3



Вы не можете начинать темы
Вы не можете отвечать на сообщения
Вы не можете редактировать свои сообщения
Вы не можете удалять свои сообщения
Вы не можете голосовать в опросах
Вы не можете прикреплять файлы к сообщениям
Вы можете скачивать файлы

Интересное в сети