(Reggae) The Heptones - Deep In The Roots - 2004, FLAC (tracks+.cue) lossless

Ответить на тему
Статистика раздачи
Размер:  395 MB   |    Зарегистрирован:  6 дней   |    Скачан:  0 раз

Полного источника не было: Никогда

 
   
 
 
Автор Сообщение

craft ®

Пол: Не указан

Стаж: 1 год 1 месяц

Сообщений: 32

Создавать темы 13-Мар-2019 15:44

[Цитировать]

The Heptones / Deep In The Roots
Жанр: Reggae
Год издания диска: 2004
Издатель (лейбл): Heartbeat Records
Номер по каталогу: HB 269
Аудиокодек: FLAC
Тип рипа: tracks+.cue
Битрейт аудио: lossless
Продолжительность: 01:07:58
Источник: скачано с
сайт-источник/ник/другое: локальная сеть
Наличие сканов в содержимом раздачи: да
Треклист:
1 African Child 3:06
2 Temptation, Tribulation And Botheration 2:54
3 Jah Guide (Previously Unreleased Extended Version) 8:00
4 Crystal Blue Persuasion 3:34
5 Jah Bless The Children (Previously Unreleased Alternate Mix) 4:18
6 Children Dub 3:27
7 Land Of Love 2:59
8 Move On (Previously Unreleased Alternate Extended Mix) 6:54
9 Everyday Life (Previously Unreleased Extended Mix) 7:25
10 Oh Jah 4:11
11 Oh Jah Dub 4:01
12 Through The Fire I Come (Previously Unreleased Extended Mix) 6:30
13 Suspicious Minds (Previously Unreleased Alternate Mix) 3:56
14 Book Of Rules (Single Mix Version) 3:28
15 Ready Baby 3:25

Лог создания рипа

Exact Audio Copy V0.99 prebeta 3 from 28. July 2007
EAC extraction logfile from 14. January 2009, 12:22
The Heptones / Deep In The Roots
Used drive : HL-DT-STDVDRAM GSA-T30L Adapter: 2 ID: 0
Read mode : Secure
Utilize accurate stream : Yes
Defeat audio cache : Yes
Make use of C2 pointers : No
Read offset correction : 667
Overread into Lead-In and Lead-Out : No
Fill up missing offset samples with silence : Yes
Delete leading and trailing silent blocks : No
Null samples used in CRC calculations : Yes
Used interface : Native Win32 interface for Win NT & 2000
Gap handling : Appended to previous track
Used output format : User Defined Encoder
Selected bitrate : 128 kBit/s
Quality : High
Add ID3 tag : No
Command line compressor : C:\Program Files\FLAC\flac.exe
Additional command line options : -V -8 -T "artist=%a" -T "title=%t" -T "album=%g" -T "date=%y" -T "tracknumber=%n" -T "genre=%m" %s
Use compression offset : 618
TOC of the extracted CD
Track | Start | Length | Start sector | End sector
---------------------------------------------------------
1 | 0:00.00 | 3:06.37 | 0 | 13986
2 | 3:06.37 | 2:53.63 | 13987 | 27024
3 | 6:00.25 | 8:00.50 | 27025 | 63074
4 | 14:01.00 | 3:34.37 | 63075 | 79161
5 | 17:35.37 | 4:18.00 | 79162 | 98511
6 | 21:53.37 | 3:27.00 | 98512 | 114036
7 | 25:20.37 | 2:59.38 | 114037 | 127499
8 | 28:20.00 | 6:45.37 | 127500 | 157911
9 | 35:05.37 | 7:25.00 | 157912 | 191286
10 | 42:30.37 | 4:11.00 | 191287 | 210111
11 | 46:41.37 | 4:01.38 | 210112 | 228224
12 | 50:43.00 | 6:30.00 | 228225 | 257474
13 | 57:13.00 | 3:56.00 | 257475 | 275174
14 | 61:09.00 | 3:28.37 | 275175 | 290811
15 | 64:37.37 | 3:25.23 | 290812 | 306209
Track 1
Filename C:\My HDD Hate ADDIS\01 - African Child.wav
Pre-gap length 0:00:02.00
Peak level 97.9 %
Track quality 100.0 %
Test CRC A1751E44
Copy CRC A1751E44
Copy OK
Track 2
Filename C:\My HDD Hate ADDIS\02 - Temptation, Tribulation & Brotheration.wav
Peak level 98.0 %
Track quality 100.0 %
Test CRC 9E431125
Copy CRC 9E431125
Copy OK
Track 3
Filename C:\My HDD Hate ADDIS\03 - Jah Guide.wav
Peak level 98.1 %
Track quality 100.0 %
Test CRC CF1D811E
Copy CRC CF1D811E
Copy OK
Track 4
Filename C:\My HDD Hate ADDIS\04 - Crystal Blue Persuasion.wav
Peak level 97.9 %
Track quality 99.9 %
Test CRC CE2ECF42
Copy CRC CE2ECF42
Copy OK
Track 5
Filename C:\My HDD Hate ADDIS\05 - Jah Bless The Children.wav
Peak level 98.0 %
Track quality 99.9 %
Test CRC 2CE327E1
Copy CRC 2CE327E1
Copy OK
Track 6
Filename C:\My HDD Hate ADDIS\06 - Children Dub.wav
Peak level 97.9 %
Track quality 100.0 %
Test CRC 15CF1DE7
Copy CRC 15CF1DE7
Copy OK
Track 7
Filename C:\My HDD Hate ADDIS\07 - Land Of Love.wav
Peak level 98.0 %
Track quality 100.0 %
Test CRC DC6FED3B
Copy CRC DC6FED3B
Copy OK
Track 8
Filename C:\My HDD Hate ADDIS\08 - Move On.wav
Peak level 98.0 %
Track quality 100.0 %
Test CRC 07E635A7
Copy CRC 07E635A7
Copy OK
Track 9
Filename C:\My HDD Hate ADDIS\09 - Everyday Life.wav
Peak level 98.0 %
Track quality 100.0 %
Test CRC 6C088EC2
Copy CRC 6C088EC2
Copy OK
Track 10
Filename C:\My HDD Hate ADDIS\10 - Oh Jah.wav
Peak level 98.0 %
Track quality 100.0 %
Test CRC 8F3B6888
Copy CRC 8F3B6888
Copy OK
Track 11
Filename C:\My HDD Hate ADDIS\11 - Oh Jah Dub.wav
Peak level 98.0 %
Track quality 100.0 %
Test CRC CA96D0DA
Copy CRC CA96D0DA
Copy OK
Track 12
Filename C:\My HDD Hate ADDIS\12 - Through The Fire I Come.wav
Peak level 97.9 %
Track quality 100.0 %
Test CRC 1F41E2C9
Copy CRC 1F41E2C9
Copy OK
Track 13
Filename C:\My HDD Hate ADDIS\13 - Suspicious Minds.wav
Peak level 98.0 %
Track quality 100.0 %
Test CRC A93945D3
Copy CRC A93945D3
Copy OK
Track 14
Filename C:\My HDD Hate ADDIS\14 - Book Of Rules.wav
Peak level 97.9 %
Track quality 100.0 %
Test CRC 26490777
Copy CRC 26490777
Copy OK
Track 15
Filename C:\My HDD Hate ADDIS\15 - Ready Baby.wav
Peak level 98.0 %
Track quality 100.0 %
Test CRC C2A7B371
Copy CRC C2A7B371
Copy OK
No errors occurred
End of status report

Содержание индексной карты (.CUE)

REM GENRE Reggae
REM DATE 2004
REM DISCID C40FF20F
REM COMMENT "ExactAudioCopy v0.99pb3"
PERFORMER "The Heptones"
TITLE "Deep In The Roots"
FILE "01 - African Child.wav" WAVE
TRACK 01 AUDIO
TITLE "African Child"
PERFORMER "The Heptones"
INDEX 01 00:00:00
FILE "02 - Temptation, Tribulation & Brotheration.wav" WAVE
TRACK 02 AUDIO
TITLE "Temptation, Tribulation & Brotheration"
PERFORMER "The Heptones"
INDEX 01 00:00:00
FILE "03 - Jah Guide.wav" WAVE
TRACK 03 AUDIO
TITLE "Jah Guide"
PERFORMER "The Heptones"
INDEX 01 00:00:00
FILE "04 - Crystal Blue Persuasion.wav" WAVE
TRACK 04 AUDIO
TITLE "Crystal Blue Persuasion"
PERFORMER "The Heptones"
INDEX 01 00:00:00
FILE "05 - Jah Bless The Children.wav" WAVE
TRACK 05 AUDIO
TITLE "Jah Bless The Children"
PERFORMER "The Heptones"
INDEX 01 00:00:00
FILE "06 - Children Dub.wav" WAVE
TRACK 06 AUDIO
TITLE "Children Dub"
PERFORMER "The Heptones"
INDEX 01 00:00:00
FILE "07 - Land Of Love.wav" WAVE
TRACK 07 AUDIO
TITLE "Land Of Love"
PERFORMER "The Heptones"
INDEX 01 00:00:00
FILE "08 - Move On.wav" WAVE
TRACK 08 AUDIO
TITLE "Move On"
PERFORMER "The Heptones"
INDEX 01 00:00:00
FILE "09 - Everyday Life.wav" WAVE
TRACK 09 AUDIO
TITLE "Everyday Life"
PERFORMER "The Heptones"
INDEX 01 00:00:00
FILE "10 - Oh Jah.wav" WAVE
TRACK 10 AUDIO
TITLE "Oh Jah"
PERFORMER "The Heptones"
INDEX 01 00:00:00
FILE "11 - Oh Jah Dub.wav" WAVE
TRACK 11 AUDIO
TITLE "Oh Jah Dub"
PERFORMER "The Heptones"
INDEX 01 00:00:00
FILE "12 - Through The Fire I Come.wav" WAVE
TRACK 12 AUDIO
TITLE "Through The Fire I Come"
PERFORMER "The Heptones"
INDEX 01 00:00:00
FILE "13 - Suspicious Minds.wav" WAVE
TRACK 13 AUDIO
TITLE "Suspicious Minds"
PERFORMER "The Heptones"
INDEX 01 00:00:00
FILE "14 - Book Of Rules.wav" WAVE
TRACK 14 AUDIO
TITLE "Book Of Rules"
PERFORMER "The Heptones"
INDEX 01 00:00:00
FILE "15 - Ready Baby.wav" WAVE
TRACK 15 AUDIO
TITLE "Ready Baby"
PERFORMER "The Heptones"
INDEX 01 00:00:00
[torrents24.ru].t77840.torrent 
Торрент: Зарегистрирован [ 2019-03-13 15:45 ] · FC9A3EA2E00D7AE664D6AF0D81EB8F3B2422668B

Скачать .torrent

Скачать

17 KB

Статус: проверено
Скачан: 0 раз
Размер: 395 MB
terms.php
[Профиль] [ЛС]
Показать сообщения:    
Ответить на тему

Текущее время: 19-Мар 23:57

Часовой пояс: UTC + 3



Вы не можете начинать темы
Вы не можете отвечать на сообщения
Вы не можете редактировать свои сообщения
Вы не можете удалять свои сообщения
Вы не можете голосовать в опросах
Вы не можете прикреплять файлы к сообщениям
Вы можете скачивать файлы

Интересное в сети