Две пинты лагера и упаковка чипсов / Two Pints of Lager and a Packet of Crisps / Сезон: 9 / Серии: 1-6 из 6 (Гарет Карривик, Ник Вуд, Бекки Мартин) [2011, Великобритания, комедия, DVDRip] DVO (ViruseProject)

Ответить на тему
Статистика раздачи
Размер:  1,36 GB   |    Зарегистрирован:  6 дней   |    Скачан:  0 раз
Сидов:  2  [  0 KB/s  ]   Личеров:  1  [  0 KB/s  ]  
 
   
 
 
Автор Сообщение

Domino ®

Пол: Не указан

Стаж: 1 год 1 месяц

Сообщений: 68

Создавать темы 13-Мар-2019 15:44

[Цитировать]

Две пинты лагера и упаковка чипсов | Two Pints of Lager and a Packet of Crisps
Год выпуска: 2011
Страна: Великобритания
Жанр: Комедия
Продолжительность: ~00:28:00
Перевод: Любительский (двухголосый закадровый) ViruseProject
Режиссёр: Гарет Карривик, Ник Вуд, Бекки Мартин
В ролях: Уилл Меллор, Натали Кэйси, Шеридан Смит, Кэтрин Дрисдейл и др.
Описание: Действие сериала разворачивается на севере Англии, в городке Ранкорн. Герои сериала - дружная группа рабочей британской молодежи, чьи основные интересы - пиво, секс и развлечения.
Качество: HDTVRip
Формат: AVI
Видео: 640x352 (1.82:1), 25 fps, XviD build 67 ~974 kbps avg, 0.17 bit/pixel
Аудио: 48 kHz, AC3 Dolby Digital, 2/0 (L,R) ch, ~192 kbps
Субтитры: отсутствуют
Реклама: Видеоролик Seasonvar в начале (10 сек). В аудиодорожке в конце (3 сек)

MediaInfo

General
Complete name : Two.Pints.of.Lager.S09E01.ViruseProject.avi
Format : AVI
Format/Info : Audio Video Interleave
File size : 232 MiB
Duration : 27 min 40 s
Overall bit rate : 1 174 kb/s
Video
ID : 0
Format : MPEG-4 Visual
Format profile : Advanced Simple@L5
Format settings, BVOP : 2
Format settings, QPel : No
Format settings, GMC : No warppoints
Format settings, Matrix : Default (H.263)
Muxing mode : Packed bitstream
Codec ID : XVID
Codec ID/Hint : XviD
Duration : 27 min 40 s
Bit rate : 968 kb/s
Width : 640 pixels
Height : 352 pixels
Display aspect ratio : 16:9
Frame rate : 25.000 FPS
Color space : YUV
Chroma subsampling : 4:2:0
Bit depth : 8 bits
Scan type : Progressive
Compression mode : Lossy
Bits/(Pixel*Frame) : 0.172
Stream size : 192 MiB (83%)
Writing library : XviD 1.2.1 (UTC 2008-12-04)
Audio
ID : 1
Format : AC-3
Format/Info : Audio Coding 3
Format settings, Endianness : Big
Codec ID : 2000
Duration : 27 min 40 s
Bit rate mode : Constant
Bit rate : 192 kb/s
Channel(s) : 2 channels
Channel positions : Front: L R
Sampling rate : 48.0 kHz
Frame rate : 31.250 FPS (1536 spf)
Bit depth : 16 bits
Compression mode : Lossy
Stream size : 38.0 MiB (16%)
Alignment : Aligned on interleaves
Interleave, duration : 40 ms (1.00 video frame)
Interleave, preload duration : 32 ms
Service kind : Complete Main

Скриншоты

Предыдущие и альтернативные раздачи
[torrents24.ru].t77811.torrent 
Торрент: Зарегистрирован [ 2019-03-13 15:45 ] · ED6EA60F65D393F082A5F7DE7DAFDB5C61173001

Скачать .torrent

Скачать

14 KB

Статус: проверено
Скачан: 0 раз
Размер: 1,36 GB
terms.php
[Профиль] [ЛС]
Показать сообщения:    
Ответить на тему

Текущее время: 20-Мар 00:14

Часовой пояс: UTC + 3



Вы не можете начинать темы
Вы не можете отвечать на сообщения
Вы не можете редактировать свои сообщения
Вы не можете удалять свои сообщения
Вы не можете голосовать в опросах
Вы не можете прикреплять файлы к сообщениям
Вы можете скачивать файлы

Интересное в сети