Человек-паук: Через вселенные / Spider-Man: Into the Spider-Verse (Боб Персичетти / Bob Persichetti, Питер Рэмзи / Peter Ramsey, Родни Ротман / Rodney Rothman) [2018, США, мультфильм, фантастика, приключения, HDRip] Dub + Sub Rus, Eng + Original Eng

Ответить на тему
Статистика раздачи
Размер:  2,16 GB   |    Зарегистрирован:  7 дней   |    Скачан:  0 раз

Полного источника не было: Никогда

 
   
 
 
Автор Сообщение

Акробат ®

Пол: Не указан

Стаж: 1 год 1 месяц

Сообщений: 17

Создавать темы 12-Мар-2019 16:44

[Цитировать]

Человек-паук: Через вселенные / Spider-Man: Into the Spider-Verse
Страна: США
Жанр: мультфильм, фантастика, боевик, комедия, приключения
Год выпуска: 2018
Продолжительность: 01:56:50-Перевод: Профессиональный (дублированный) | iTunes
Субтитры: русские, английские
Оригинальная аудиодорожка: английский-Режиссер: Боб Персичетти / Bob Persichetti, Питер Рэмзи / Peter Ramsey, Родни Ротман / Rodney Rothman-В ролях: Шамеик Мур, Джейк Джонсон, Хейли Стайнфелд, Махершала Али, Брайан Тайри Генри, Лили Томлин, Луна Лорен Велес, Зои Кравиц, Джон Мулэйни, Кимико Гленн-Описание: Мы всё знаем о Питере Паркере. Он спас город, влюбился, а потом спасал город снова и снова... Но все это - в нашем измерении. А что если в результате работы гигантского коллайдера откроется окно из одного измерения в другое? Найдется ли в нем свой Человек-паук? И как он будет выглядеть? Приготовьтесь к тому, что в разных вселенных могут быть разные Люди-пауки и однажды им придется собраться вместе для борьбы с почти непобедимым врагом.- -Качество видео: HDRip
Формат видео: AVI
Видео: 720x304 (2.37:1), 23.976 fps, XviD build 73 ~1869 kbps avg, 0.36 bit/pixel
Аудио 1: 48 kHz, AC3 Dolby Digital, 3/2 (L,C,R,l,r) + LFE ch, ~384 kbps | русский
Аудио 2: 48 kHz, AC3 Dolby Digital, 3/2 (L,C,R,l,r) + LFE ch, ~384 kbps | английский-[box]Сэмпл[/box]-

MediaInfo

Код:Формат : AVI
Формат/Информация : Audio Video Interleave
Профиль формата : OpenDML
Размер файла : 2,16 Гбайт
Продолжительность : 1 ч. 56 м.
Общий поток : 2644 Кбит/сек
Программа кодирования : VirtualDubMod 1.5.10.3 | www.virtualdub-fr.org || (build 2550/release)
Библиотека кодирования : VirtualDubMod build 2550/release
Видео
Идентификатор : 0
Формат : MPEG-4 Visual
Профиль формата : Advanced Simple@L5
Настройки формата : BVOP1
Параметр BVOP формата : 1
Параметр QPel формата : Нет
Параметр GMC формата : Без точки перехода
Параметр матрицы формата : Default (MPEG)
Идентификатор кодека : XVID
Идентификатор кодека/Подсказка : XviD
Продолжительность : 1 ч. 56 м.
Битрейт : 1858 Кбит/сек
Ширина : 720 пикселей
Высота : 304 пикселя
Соотношение сторон : 2,35:1
Частота кадров : 23,976 (24000/1001) кадра/сек
Цветовое пространство : YUV
Субдискретизация насыщенности : 4:2:0
Битовая глубина : 8 бит
Тип развёртки : Прогрессивная
Метод сжатия : С потерями
Бит/(Пиксели*Кадры) : 0.354
Размер потока : 1,52 Гбайт (70%)
Библиотека кодирования : XviD 73
Аудио #1
Идентификатор : 1
Формат : AC-3
Формат/Информация : Audio Coding 3
Коммерческое название : Dolby Digital
Идентификатор кодека : 2000
Продолжительность : 1 ч. 56 м.
Вид битрейта : Постоянный
Битрейт : 384 Кбит/сек
Каналы : 6 каналов
Channel layout : L R C LFE Ls Rs
Частота : 48,0 КГц
Частота кадров : 31,250 кадров/сек (1536 SPF)
Битовая глубина : 16 бит
Метод сжатия : С потерями
Размер потока : 321 Мбайт (15%)
Выравнивание : Разделение по промежуткам
Продолжительность промежутка : 42 мс. (1,00 видеокадр)
Время предзагрузки промежутка : 500 мс.
Заголовок : Russian
ServiceKind/String : Complete Main
Аудио #2
Идентификатор : 2
Формат : AC-3
Формат/Информация : Audio Coding 3
Коммерческое название : Dolby Digital
Идентификатор кодека : 2000
Продолжительность : 1 ч. 56 м.
Вид битрейта : Постоянный
Битрейт : 384 Кбит/сек
Каналы : 6 каналов
Channel layout : L R C LFE Ls Rs
Частота : 48,0 КГц
Частота кадров : 31,250 кадров/сек (1536 SPF)
Битовая глубина : 16 бит
Метод сжатия : С потерями
Размер потока : 321 Мбайт (15%)
Выравнивание : Разделение по промежуткам
Продолжительность промежутка : 42 мс. (1,00 видеокадр)
Время предзагрузки промежутка : 500 мс.
Заголовок : English
ServiceKind/String : Complete Main

Скриншоты



[torrents24.ru].t77726.torrent 
Торрент: Зарегистрирован [ 2019-03-12 16:45 ] · 43F9B4848DDACE959C943B055C7585DCBFF81FD6

Скачать .torrent

Скачать

12 KB

Статус: проверено
Скачан: 0 раз
Размер: 2,16 GB
terms.php
[Профиль] [ЛС]
Показать сообщения:    
Ответить на тему

Текущее время: 20-Мар 00:52

Часовой пояс: UTC + 3



Вы не можете начинать темы
Вы не можете отвечать на сообщения
Вы не можете редактировать свои сообщения
Вы не можете удалять свои сообщения
Вы не можете голосовать в опросах
Вы не можете прикреплять файлы к сообщениям
Вы можете скачивать файлы

Интересное в сети